<?xml version="1.0" standalone="no"?>
<!DOCTYPE svg PUBLIC "-//W3C//DTD SVG 1.1//EN" "http://www.w3.org/Graphics/SVG/1.1/DTD/svg11.dtd" >
<svg xmlns="http://www.w3.org/2000/svg">
<metadata>Generated by IcoMoon</metadata>
<defs>
<font id="icomoon" horiz-adv-x="1024">
<font-face units-per-em="1024" ascent="960" descent="-64" />
<missing-glyph horiz-adv-x="1024" />
<glyph unicode="&#x20;" horiz-adv-x="512" d="" />
<glyph unicode="&#xe900;" glyph-name="quota" d="M545.415 499.523v118.568h119.646v80.627h-119.646v80.627h-78.040v-80.627h-14.228c-87.956 0-159.528-62.518-159.528-139.048s71.572-139.048 159.528-139.048h14.228v-158.666h-161.253v-80.627h161.253v-80.627h78.040v83.213c104.125 7.545 171.17 67.261 171.17 157.804s-67.261 150.259-171.17 157.804zM467.375 498.445h-14.228c-43.978 0-79.764 26.732-79.764 59.715s35.786 59.715 79.764 59.715h14.228v-119.431zM545.415 263.033v157.157c41.607-3.665 91.621-20.049 91.621-78.471s-50.014-74.806-91.621-78.686zM512 960.216c-282.193 0-512.216-229.592-512.216-512.216s229.592-512.216 512.216-512.216 512 230.023 512 512.431c0 282.193-229.807 512-512 512zM512 15.764c-238.43 0-432.236 194.021-432.236 432.236s193.805 432.451 432.236 432.451 432.236-194.021 432.236-432.236-194.021-432.451-432.236-432.451z" />
<glyph unicode="&#xe901;" glyph-name="recommend" d="M513.293 705.401c110.808 0 204.8-88.603 204.8-199.195 0-36.002-10.995-77.393-30.397-105.203l-2.803-2.803c-5.605-8.408-10.995-16.6-16.6-22.205-8.408-10.995-22.205-25.007-30.397-33.199-8.408-10.995-16.6-25.007-22.205-36.002-2.803-5.605-5.605-8.408-5.605-13.797-19.402-33.199-30.397-82.998-30.397-99.597 0-5.605-2.803-16.6-2.803-30.397h-121.802c0 2.803 0 5.605 0 8.408-2.803 19.402-10.995 82.998-27.594 116.197s-33.199 60.793-55.404 80.195c-2.803 2.803-8.408 8.408-10.995 10.995-8.408 8.408-13.797 16.6-19.402 25.007-22.205 30.397-30.397 69.201-30.397 105.203 0 107.789 88.603 196.392 201.997 196.392zM513.293 758.003c-144.007 0-257.401-110.808-257.401-248.994 0-46.996 13.797-93.992 38.804-135.599 8.408-10.995 16.6-22.205 25.007-30.397 5.605-5.605 8.408-8.408 13.797-13.797 19.402-19.402 33.199-41.607 44.194-66.398 10.995-25.007 19.402-74.806 22.205-99.597 0-10.995 2.803-30.397 0-55.404h224.202c-2.803 0 2.803 66.398 2.803 72.003 5.605 27.594 16.6 63.596 27.594 85.8 8.408 13.797 16.6 30.397 25.007 41.607 8.408 10.995 19.402 22.205 27.594 30.397 8.408 8.408 13.797 19.402 22.205 30.397 27.594 38.804 41.607 88.603 41.607 138.402-0.216 140.773-116.413 251.581-257.617 251.581v0zM618.496 60.605c0-13.797-10.995-27.594-27.594-27.594h-157.804c-16.6 0-27.594 13.797-27.594 27.594v0c0 13.797 10.995 27.594 27.594 27.594h157.804c16.6-2.803 27.594-16.6 27.594-27.594v0zM765.090 882.392l-44.194 27.594-74.806-127.407c16.6-8.408 30.397-16.6 44.194-27.594l74.806 127.407zM823.296 456.192h165.996v52.601h-165.996c0-5.605 0-8.408 0-13.797 2.803-10.995 0-24.792 0-38.804zM925.696 702.599l-27.594 44.194-129.994-74.806c10.995-16.6 19.402-30.397 27.594-46.996l129.994 77.608zM294.696 910.201l-44.194-27.594 72.003-124.605c13.797 10.995 30.397 19.402 44.194 27.594l-72.003 124.605zM87.094 276.399l27.594-44.194 132.797 77.393c-10.995 13.797-19.402 30.397-27.594 44.194l-132.797-77.393zM900.689 232.205l27.594 44.194-135.599 80.195c-8.408-16.6-16.6-30.397-27.594-44.194l135.599-80.195zM538.301 813.191v146.594h-52.601v-144.007c5.605 0 10.995 0 19.402 0 10.995 0.216 24.792 0.216 33.199-2.587zM114.688 746.792l-27.594-44.194 127.407-74.806c8.408 16.6 16.6 30.397 27.594 46.996l-127.407 72.003zM183.889 508.793h-149.396v-52.601h152.199c-2.803 13.797-2.803 27.594-2.803 38.804 0 5.605 0 8.408 0 13.797zM582.494 8.003c0-52.601-16.6-72.003-69.201-72.003s-72.003 19.402-72.003 72.003h141.204zM466.297 137.997l-30.397 248.994v2.803c2.803 10.995 2.803 22.205 2.803 30.397 5.605 44.194 8.408 69.201 27.594 69.201 16.6 0 19.402-19.402 25.007-55.404 5.605 36.002 8.408 55.404 25.007 55.404s19.402-19.402 25.007-55.404c5.605 36.002 8.408 55.404 25.007 55.404 19.402 0 22.205-25.007 27.594-69.201 0-10.995 2.803-19.402 2.803-30.397v-2.803l-27.594-251.796-27.594 2.803 30.397 248.994c0 10.995-2.803 19.402-2.803 27.594v0c-5.605-41.607-8.408-63.596-25.007-63.596s-19.402 19.402-25.007 55.404c-5.605-36.002-8.408-55.404-25.007-55.404-19.402 0-22.205 22.205-25.007 60.793v0c0-10.995-2.803-22.205-2.803-30.397l30.397-243.604-30.397 0.216z" />
<glyph unicode="&#xe902;" glyph-name="renewal" d="M467.16 401.435h-163.409v70.063h239.508c45.487 28.672 95.501 43.116 158.019 46.996v441.506h-659.887v-803.247l346.435 0.431c-0.862 9.27-1.293 18.109-1.293 27.81 0.431 82.998 30.828 156.726 80.627 216.441zM303.751 796.376h267.533v-67.476h-267.533v67.476zM303.751 632.751h267.533v-64.889h-267.533v64.889zM238.861 417.172h-67.476v67.476h67.476v-67.476zM238.861 583.384h-67.476v64.889h67.476v-64.889zM238.861 749.595h-67.476v64.889h67.476v-64.889zM723.052 454.467c-142.929 0-259.341-116.413-259.341-259.341s116.413-259.341 259.341-259.341 259.341 116.413 259.341 259.341-116.197 259.341-259.341 259.341zM723.052-9.027c-112.748 0-204.153 91.405-204.153 204.153s91.405 204.153 204.153 204.153 204.153-91.405 204.153-204.153c0-112.963-91.405-204.153-204.153-204.153zM763.581 339.133h-62.302v-101.322h-101.322v-64.889h101.322v-101.322h62.302v101.322h93.561v64.889h-93.561z" />
<glyph unicode="&#xe903;" glyph-name="pen" d="M99.813 24.172h824.158v-88.172h-824.158v88.172zM372.43 214.291l-226.69 156.572 406.867 589.074 226.69-156.572-406.867-589.074zM117.491 323.611l-1.725-241.448 224.849 87.094z" />
<glyph unicode="&#xe904;" glyph-name="phone" d="M926.558 63.192c-1.078 1.725-2.587 4.527-5.174 7.976l-146.594 203.291c-0.862 1.078-4.312 5.389-5.174 6.683-9.27 10.348-24.145 12.719-36.217 5.821-1.94-1.078-5.174-2.803-9.27-6.036l-91.621-65.967c-34.061-24.36-67.692-3.665-86.878 10.995-23.283 17.893-84.291 90.112-117.706 132.581l-15.737 21.558c-29.75 44.625-80.195 126.329-90.328 155.648-10.563 30.828-17.246 60.793 17.246 85.585l91.837 66.183c4.096 3.234 6.899 5.389 8.623 6.899 10.132 9.27 12.072 24.145 5.389 36.002-0.647 0.862-3.234 5.174-3.665 6.036l-147.456 203.938c-4.527 6.252-9.27 11.21-13.797 14.444-9.701 6.899-22.636 6.683-32.552 0.216-1.94-1.078-5.389-3.234-9.701-6.252l-62.518-45.272c-0.216-0.216-29.75-19.833-39.667-32.552-6.252-8.623-7.761-11.426-10.995-17.462-72.003-145.085-23.283-351.394 137.539-581.201l15.522-20.911c153.061-206.309 312.374-315.392 460.261-315.392 21.558 0 42.9 2.371 64.674 7.545 9.485 2.587 18.971 6.899 27.594 13.15 6.899 4.958 80.842 59.069 80.842 59.069 7.114 4.958 12.288 9.701 15.737 14.875 6.683 9.485 6.252 22.851-0.216 32.552z" />
<glyph unicode="&#xe905;" glyph-name="emerging" horiz-adv-x="1067" d="M73.944 26.759h176.128v240.586h-176.128v-240.586zM822.434 540.268v77.393h-198.117v-130.641c53.248 34.061 115.981 54.11 183.458 54.11 4.958-0.216 9.917-0.647 14.659-0.862zM536.36 406.178v14.444h-198.117v-393.863h165.133c-25.654 48.936-40.313 104.771-40.313 164.056-0.216 81.273 27.379 156.079 73.297 215.363zM456.381 553.418l223.987 211.914 77.177-68.985 50.014 263.653-263.653-72.435 80.842-72.435-200.704-189.925-218.597-12.504-204.584-137.971 42.685-60.793 187.338 126.329 225.496 13.15zM749.352 256.566c0-18.109 19.833-32.768 44.194-32.768h7.114v65.752h-7.114c-24.36-0.216-44.194-14.875-44.194-32.984zM844.638 179.173v-86.232c22.851 2.156 50.661 10.995 50.661 43.116-0.216 32.121-28.025 41.176-50.661 43.116zM811.439 442.826c-140.773 0-254.814-113.395-254.814-253.305s114.041-253.305 254.814-253.305c140.773 0 254.814 113.395 254.814 253.305s-114.041 253.305-254.814 253.305zM844.638 49.395v-44.625h-43.978v43.763h-88.172v43.763h88.172v87.525h-7.114c-48.721 0-88.172 34.277-88.172 76.531s39.451 76.531 88.172 76.531h7.114v43.763h43.978v-43.763h65.967v-43.763h-65.967v-66.398c57.775-4.096 94.639-37.080 94.639-86.663-0.216-49.583-37.080-82.567-94.639-86.663z" />
<glyph unicode="&#xe906;" glyph-name="newer" horiz-adv-x="1311" d="M543.475 673.064c0-27.81 29.319-50.661 65.536-50.661h10.563v101.322h-10.563c-36.002 0-65.536-22.851-65.536-50.661zM684.894 554.065v-132.797c33.846 3.234 75.021 17.031 75.021 66.398s-41.391 63.38-75.021 66.398zM635.742 960c-208.896 0-378.125-174.619-378.125-390.198s169.229-390.198 378.125-390.198 378.125 174.619 378.125 390.198c0 215.579-169.445 390.198-378.125 390.198zM684.894 354.223v-68.77h-65.32v67.476h-130.641v67.476h130.641v134.737h-10.563c-72.219 0-130.856 53.032-130.856 117.922 0 65.105 58.637 117.922 130.856 117.922h10.563v67.476h65.32v-67.476h98.088v-67.261h-98.088v-102.4c85.585-6.252 140.342-56.913 140.342-133.443 0-76.746-54.757-127.407-140.342-133.659zM1260.49 521.944l-246.838-205.662 98.52-39.020c-104.556-149.827-272.061-240.155-454.656-240.155-290.816 0-536.36 234.119-558.781 532.911l-97.873-7.761c26.516-351.178 314.961-626.041 656.653-626.041 223.124 0 427.062 114.904 548.433 303.966l103.693-41.176-49.152 322.937z" />
<glyph unicode="&#xe907;" glyph-name="etf" horiz-adv-x="1300" d="M278.528 547.382c0-27.163 28.241-49.368 62.949-49.368h10.132v98.735h-10.132c-34.708 0-62.949-22.205-62.949-49.368zM414.343 431.4v-129.779c32.552 3.018 72.219 16.6 72.219 64.889 0 48.074-39.667 61.656-72.219 64.889zM350.963 65.994c5.389-0.216 10.779-0.431 16.168-0.431 200.92 0 363.897 170.523 363.897 380.928s-162.978 381.144-363.897 381.144c-200.92 0-363.897-170.523-363.897-380.928 0-204.8 154.139-371.874 347.729-380.712zM414.343 236.086v-67.045h-62.949v65.752h-125.683v65.752h125.683v131.719h-10.132c-69.416 0-125.898 51.739-125.898 115.119s56.482 115.119 125.898 115.119h10.132v65.752h62.949v-65.752h94.208v-65.752h-94.208v-100.029c82.351-6.252 135.168-55.619 135.168-130.425 0-74.59-52.601-124.173-135.168-130.21zM649.971 840.138c-31.475 0-61.656-4.743-90.759-12.719 156.295-43.978 271.845-196.824 271.845-378.988 0-183.027-116.413-336.088-273.57-379.635 24.576-6.899 50.014-11.426 76.099-12.719 5.389-0.216 10.779-0.431 16.168-0.431 200.92 0 363.897 175.697 363.897 392.138s-162.762 392.354-363.682 392.354zM932.81 840.138c-31.475 0-61.656-4.743-90.759-12.719 156.295-43.978 272.061-196.824 272.061-378.988 0-183.027-116.413-336.088-273.57-379.635 24.576-6.899 50.014-11.426 76.099-12.719 5.389-0.216 10.779-0.431 16.168-0.431 200.92 0 363.897 175.697 363.897 392.138s-162.978 392.354-363.897 392.354z" />
<glyph unicode="&#xe908;" glyph-name="futures" horiz-adv-x="1257" d="M455.949 329.863v-110.161c20.264 2.587 64.889 14.228 64.889 55.188s-44.625 52.386-64.889 54.973zM314.314 440.024c0-23.067 25.438-40.098 56.697-40.098h23.929v80.195h-23.929c-31.259 0-56.697-17.031-56.697-40.098zM827.823 303.778c-56.697 175.050-143.36 367.347-298.361 431.158 27.163 28.456 54.11 56.482 81.058 82.567 1.725 1.509 2.803 3.234 3.665 4.958 18.109 17.031 36.002 33.846 54.11 50.014 20.48 16.6-4.958 45.487-60.793 60.147l-50.014-63.165c-0.431 0.216-0.862 0.216-1.293 0.431-3.449 1.293-7.33 1.94-10.779 3.234l25.654 69.848c-80.195 20.264-172.894 21.989-264.731 9.27l13.366-69.201c-5.389-0.862-10.563-1.725-15.953-2.803-15.091 22.851-34.061 50.445-46.134 63.811-13.581-2.587-27.163-5.605-40.744-8.839-61.871-14.013-90.974-45.056-69.416-62.518 17.246-15.522 34.493-31.69 51.739-48.074 0.862-2.587 2.156-4.958 4.743-7.114 28.888-28.025 58.206-58.422 87.309-89.25-145.516-69.632-228.729-255.030-283.271-424.475-53.895-218.813 189.925-368.856 410.031-367.562 219.891-1.509 463.71 148.749 409.816 367.562zM455.949 164.083v-45.272h-61.009v60.147h-121.802v60.147h121.802v100.46h-23.929c-62.518 0-113.179 46.349-113.179 100.46 0 53.895 50.877 100.46 113.179 100.46h23.929v60.147h61.009v-60.147h81.273v-60.362h-81.273v-94.639c40.529-5.174 121.587-47.212 121.587-110.808 0-63.38-81.058-105.418-121.587-110.592zM1250.358 355.732c-44.409 133.659-112.317 280.468-231.316 328.111 20.48 21.989 41.176 43.547 61.44 63.596 1.293 1.078 2.156 2.587 2.803 3.88 13.797 13.15 27.379 26.301 40.96 38.589 15.522 12.935-4.096 34.708-46.781 45.703l-37.726-48.721c-0.431 0-0.647 0.216-1.078 0.216-2.803 0.862-5.605 1.509-8.408 2.371l19.187 53.464c-61.44 15.091-132.581 15.737-202.644 5.389l10.779-53.032c-4.096-0.647-8.192-1.293-12.288-2.156-11.641 17.462-26.516 38.373-35.786 48.505-10.348-2.156-20.911-4.527-31.043-7.114-47.212-11.21-69.416-34.924-52.817-48.29 13.366-11.857 26.516-23.929 39.882-36.433 0.647-1.94 1.725-3.88 3.665-5.389 22.42-21.342 44.84-44.194 67.476-67.692-32.552-15.953-60.793-39.451-85.8-68.123 69.632-95.933 114.257-214.070 145.516-310.218l0.862-3.449c18.54-75.668 7.976-151.552-29.75-218.166 23.714-4.096 47.643-6.036 71.357-5.821 168.583 1.293 354.196 117.706 311.512 284.78z" />
<glyph unicode="&#xe909;" glyph-name="oversea" horiz-adv-x="1317" d="M490.011 75.48v165.78c25.654-1.078 50.661-3.88 75.021-7.976-0.862 11.426-1.725 22.851-1.725 34.493 0 7.33 0.647 14.444 1.078 21.558-24.145 3.665-48.936 6.252-74.375 7.33v142.067h111.454c9.054 19.402 19.187 37.942 31.043 55.404h-142.713v205.016c57.775 1.078 113.61 8.839 164.918 22.851 19.402-45.918 33.199-98.951 40.529-156.079 15.306 14.013 31.69 26.732 48.936 38.157-7.976 48.505-20.049 94.208-36.433 134.521 23.929 9.054 46.134 19.833 67.045 31.69 31.69-34.277 57.344-73.728 76.315-117.059 17.677 5.174 36.002 9.054 54.757 11.641-26.516 64.458-66.183 121.802-116.197 168.583l-6.252 8.192c-0.431-0.431-1.078-0.647-1.725-1.078-82.567 74.159-191.434 119.431-310.649 119.431-259.557 0-470.824-212.992-470.824-474.489 0-261.713 211.267-474.489 470.824-474.489 57.128 0 111.67 10.779 162.331 29.75-19.187 28.025-34.493 58.853-46.134 91.405-29.103-31.259-62.087-51.523-97.226-56.697zM732.968 810.819c-15.522-7.976-31.69-15.306-48.936-21.773-18.971 34.493-40.96 64.243-65.536 87.956 41.607-15.953 80.195-38.373 114.472-66.183zM490.011 886.272c53.464-7.976 102.4-50.014 139.695-113.61-43.547-10.995-90.759-17.031-139.695-18.109v131.719zM325.74 877.649c-24.145-23.283-45.918-51.955-64.458-85.585-16.815 6.467-32.337 14.013-47.427 21.989 33.63 26.732 71.357 48.29 111.885 63.596zM170.954 774.602c20.264-12.072 42.469-22.851 65.967-32.337-29.319-70.494-46.781-155.648-48.29-248.347h-133.012c2.371 108.867 45.703 207.387 115.335 280.684zM57.991 438.73h131.503c3.665-67.692 15.953-130.641 34.924-186.26-25.654-10.779-49.152-23.498-70.279-37.511-51.955 61.871-86.663 138.833-96.148 223.771zM193.59 174.215c15.953 9.917 32.984 18.971 51.739 26.732 18.324-39.667 40.529-74.375 65.752-102.4-43.547 18.54-82.998 44.409-117.491 75.668zM435.038 79.791c-54.326 16.168-102.831 67.261-137.539 139.695 42.469 12.288 89.034 19.833 137.539 21.989v-161.684zM435.038 296.664c-55.835-2.156-109.514-10.995-158.666-25.869-17.677 50.23-29.319 107.358-33.199 167.936h191.865v-142.067zM435.038 494.134h-192.728c1.725 85.369 18.971 165.133 46.996 230.238 45.487-13.15 94.639-21.127 145.731-24.145v-206.093zM435.038 755.416c-42.038 2.587-82.567 9.27-120.077 19.187 32.768 55.188 74.375 93.561 120.077 107.143v-126.329zM920.953 341.72c0-22.851 24.792-41.607 55.188-41.607h8.839v83.213h-8.839c-30.397 0-55.188-18.755-55.188-41.607zM1039.953 244.062v-109.299c28.456 2.587 63.165 14.013 63.165 54.541 0 40.744-34.708 51.955-63.165 54.757zM998.562 577.563c-175.912 0-318.41-143.576-318.41-320.781s142.498-320.781 318.41-320.781 318.41 143.576 318.41 320.781-142.713 320.781-318.41 320.781zM1039.953 79.576v-56.482h-54.973v55.404h-109.945v55.404h109.945v110.808h-8.839c-60.793 0-110.161 43.547-110.161 97.011s49.368 97.011 110.161 97.011h8.839v55.404h54.973v-55.404h82.567v-55.404h-82.567v-84.076c72.003-5.174 118.137-46.781 118.137-109.73 0-63.165-46.134-104.771-118.137-109.945z" />
<glyph unicode="&#xe90a;" glyph-name="stocksingle" horiz-adv-x="949" d="M388.042 392.812v441.937c-217.735-21.773-387.827-205.662-387.827-429.433 0-238.43 192.943-431.589 431.158-431.589 146.378 0 265.378 66.398 343.417 178.284-107.358 62.949-223.124 144.007-369.287 230.454l-17.462 10.348zM895.299 163.651c41.822 85.154 59.5 180.871 50.877 276.157l-415.852-61.44c117.491-69.416 247.916-145.947 364.975-214.717zM935.397 522.375c-11.21 48.721-29.75 96.364-55.835 141.851-90.974 157.588-252.012 248.994-420.81 258.048v-470.393l476.645 70.494z" />
<glyph unicode="&#xe90b;" glyph-name="close" d="M932.677 960.095l91.309-91.309-932.755-932.755-91.309 91.309 932.755 932.755zM91.231 960.095l932.755-932.755-91.309-91.309-932.755 932.755 91.309 91.309z" />
<glyph unicode="&#xe90c;" glyph-name="recomm" d="M155.217-62.060l355.921 281.762 357.214-283.702v1024h-713.135v-1022.060zM441.075 609.037l58.637 160.606 58.637-160.606 179.362-3.234-142.929-102.616 52.17-162.547-147.025 97.226-147.025-97.226 52.17 162.547-142.929 102.616 178.931 3.234z" />
<glyph unicode="&#xe90d;" glyph-name="stocks" d="M313.667-64h-216.010v301.164h216.226v-301.164zM962.129-64h-216.226v629.706h216.226v-629.706zM637.898-64h-216.226v438.056h216.226v-438.056zM646.306 879.373l283.702 80.627-53.895-293.619-229.807 212.992zM107.789 351.852l-45.918 67.692 220.106 153.708 235.412 14.013 265.809 260.204 56.266-59.069-287.367-281.331-242.742-14.444-201.566-140.773z" />
<glyph unicode="&#xe90e;" glyph-name="versions" horiz-adv-x="1134" d="M480.525 445.413h202.213v105.203h449.698l-197.47 409.384h-733.831l-197.039-409.6h476.861v-104.987h-0.431zM308.062 857.6h546.924v-70.063h-546.924v70.063zM237.999 652.8v70.063h684.463v-70.063h-684.463zM753.017 380.524h-342.555v99.597h-409.6v-544.121h1132.005v544.337h-379.85v-99.813zM954.799 73.539h-781.474v134.737h781.474v-134.737z" />
<glyph unicode="&#xe90f;" glyph-name="winapplogo" d="M965.363 674.789l-432.020 278.744c-18.324 12.288-42.9 6.036-55.188-12.288l-432.020-664.845c-12.288-18.324-6.036-42.9 12.288-55.188l432.020-278.959c18.324-12.288 42.9-6.036 55.188 12.288l432.020 665.061c12.288 18.324 6.252 42.9-12.288 55.188zM358.723 123.123c-15.306-21.558-42.9-27.594-64.458-15.306-21.558 15.306-27.594 42.9-15.306 64.458 15.306 21.558 42.9 27.594 64.458 15.306 21.342-15.306 27.594-42.9 15.306-64.458zM563.955 98.547l-392.138 251.365 346.22 536.36 389.12-251.365-343.202-536.36zM334.147 429.676l61.224 45.918 107.358-70.494-15.306-76.531 58.206-36.864 67.476 340.184-58.206 36.864-278.959-205.447 58.206-33.63zM545.63 585.971l-27.594-122.664-73.512 45.918 101.107 76.746zM640.701 441.748l27.594-12.072 24.36 36.648 42.9-27.594 18.54 30.612-42.9 27.594 27.594 36.864-27.594 18.324-24.576-42.9-42.9 27.594-18.324-27.594 42.9-24.576z" />
<glyph unicode="&#xe910;" glyph-name="blank" horiz-adv-x="1293" d="M903.491-64h-897.024v848.303h448.62v-115.766h-336.303v-616.987h672.606v424.259h112.101v-539.81zM996.621 960l290.385-196.608-288.876-199.195-1.509 395.803zM550.157 205.905h-117.059c0 308.493 283.702 598.663 582.71 598.663v-120.94c-261.713 0-465.651-207.818-465.651-477.723z" />
<glyph unicode="&#xe911;" glyph-name="link" horiz-adv-x="1102" d="M292.541-64c-3.449 0-6.683 0-10.132 0.216-72.866 2.587-140.342 32.337-190.141 84.076l-18.971 19.618c-49.799 51.523-75.668 118.784-73.081 189.278s33.63 135.815 86.878 183.673l210.621 186.476c53.032 47.643 122.88 72.65 195.53 70.063 72.866-2.587 140.342-32.337 190.141-84.076 26.516-27.379 25.007-70.494-3.665-96.148-28.241-25.223-72.866-23.714-99.166 3.88-24.145 25.007-56.913 39.451-92.268 40.744-34.708 1.293-68.985-10.995-95.070-34.277l-210.621-186.476c-25.654-22.851-40.529-54.541-41.822-88.819s11.21-66.829 35.355-91.837l18.971-19.618c24.145-25.007 56.913-39.451 92.268-40.744 35.139-0.647 68.985 10.779 95.070 34.277l45.918 39.882c28.888 25.007 73.297 22.851 99.382-5.174 25.869-28.025 23.498-70.925-5.389-95.933l-44.84-39.235c-50.014-44.84-115.766-69.848-184.967-69.848zM618.496 226.169c-3.449 0-6.683 0-10.132 0.216-72.866 2.587-140.342 32.337-190.141 84.076-26.516 27.379-25.007 70.494 3.665 96.148 28.456 25.654 72.866 24.145 99.382-3.449 24.145-25.007 56.913-39.451 92.268-40.744 35.571-0.862 68.985 10.995 95.070 34.277l210.405 186.476c25.654 22.851 40.529 54.541 41.822 88.819s-11.21 66.829-35.355 91.837l-18.971 19.833c-23.929 25.007-56.697 39.451-92.052 40.744-37.942 2.803-69.201-10.995-95.070-34.277l-40.96-35.571c-29.319-25.223-73.728-22.851-99.597 4.958-25.869 28.025-23.498 70.925 5.389 95.933l39.882 34.493c52.386 47.212 123.742 72.435 194.883 69.632 73.081-2.587 140.557-32.337 190.141-84.076l18.971-19.833c49.583-51.523 75.453-118.784 72.866-189.278s-33.415-135.815-86.878-183.673l-210.405-186.476c-50.445-45.272-115.981-70.063-185.182-70.063z" />
<glyph unicode="&#xe912;" glyph-name="lock" d="M853.261 619.17v342.124h-682.739v-342.124h-170.523v-684.463h1024v684.463h-170.739zM597.369 105.661h-170.739v342.339h170.739v-342.339zM682.523 619.17h-341.261v171.17h341.261v-171.17z" />
<glyph unicode="&#xe913;" glyph-name="know" horiz-adv-x="1207" d="M447.111 343.875h-149.612v72.435h171.816c15.737 39.451 37.080 75.884 62.518 108.652h-234.334v72.435h296.205v-7.33c43.116 36.864 93.346 65.32 148.103 82.998v286.72h-740.945v-906.078l478.154 0.647c-27.163 58.206-42.9 123.311-42.9 192.081 0.431 33.63 4.312 66.183 10.995 97.442zM297.499 778.698h296.205v-72.435h-296.205v72.435zM222.046 343.875h-74.159v72.435h74.159v-72.435zM222.046 525.177h-74.159v72.435h74.159v-72.435zM222.046 706.479h-74.159v72.435h74.159v-72.435zM866.627 527.98c146.378 0 265.378-116.413 265.378-259.773 0-143.144-119-259.773-265.378-259.773s-265.378 116.628-265.378 259.773c0 143.144 119 259.773 265.378 259.773zM866.627 600.414c-187.554 0-339.537-148.749-339.537-332.207s151.983-332.207 339.537-332.207c187.554 0 339.537 148.749 339.537 332.207s-151.983 332.207-339.537 332.207v0zM927.205 90.139h-111.239v217.519h111.023v-217.519zM937.984 411.998c0-35.355-29.319-63.811-65.32-63.811s-65.32 28.672-65.32 63.811c0 35.355 29.319 63.811 65.32 63.811 36.217 0 65.32-28.672 65.32-63.811z" />
<glyph unicode="&#xe914;" glyph-name="services" d="M596.076 469.773c-45.703 40.313-104.125 67.692-170.523 76.746 97.011 19.833 170.092 103.909 170.092 204.584 0 115.335-95.933 208.896-213.639 208.896-117.922 0-213.639-93.777-213.639-208.896 0-99.166 71.141-182.164 165.996-203.507-165.349-19.187-289.523-150.043-289.523-313.883v-62.087h351.394c9.27 129.779 87.741 240.802 199.842 298.146zM735.555-64c-138.617-4.312-254.814 102.616-259.126 237.999s104.771 249.209 243.389 253.305c138.617 4.312 254.814-102.616 259.126-237.999s-104.987-248.994-243.389-253.305zM721.327 380.524c-111.885-3.449-200.273-95.286-196.824-204.8s97.442-195.961 209.327-192.512c111.885 3.449 200.273 95.286 196.824 204.8s-97.226 195.746-209.327 192.512zM756.035 113.637h-50.445c-0.216 7.761-0.216 12.288-0.216 14.013 0 17.246 2.803 31.475 8.192 42.685s16.168 23.714 32.337 37.511c16.168 14.013 25.869 23.067 29.103 27.379 4.958 6.899 7.33 14.228 7.33 22.636 0 11.426-4.312 21.127-12.935 29.319s-20.264 12.288-34.924 12.288c-14.013 0-25.869-4.312-35.355-12.719s-15.953-21.342-19.618-38.804l-50.877 6.683c1.509 25.007 11.426 46.134 30.181 63.596 18.54 17.462 43.116 26.085 73.297 26.085 31.906 0 57.128-8.839 75.884-26.516s28.241-38.157 28.241-61.44c0-12.935-3.449-25.223-10.348-36.864s-21.773-27.379-44.409-47.212c-11.641-10.348-18.971-18.54-21.773-24.792-2.803-6.467-3.88-17.677-3.665-33.846zM764.659 53.706c0-16.815-14.013-30.397-31.043-30.397s-31.043 13.581-31.043 30.397c0 16.815 14.013 30.397 31.043 30.397s31.043-13.581 31.043-30.397z" />
<glyph unicode="&#xe915;" glyph-name="trends" horiz-adv-x="1293" d="M1058.277 89.708v745.472h-205.662v-745.472h-117.706v487.424h-205.878v-487.424h-117.491v229.376h-205.878v-229.376h-147.025v774.144h-58.637v-831.488h1293.474v57.344h-235.197z" />
<glyph unicode="&#xe916;" glyph-name="esunnet" horiz-adv-x="1293" d="M689.637 515.692c77.824 16.168 136.677 85.154 136.677 167.72 0 94.424-77.177 171.17-171.816 171.17s-171.816-76.746-171.816-171.17c0-81.273 57.128-149.396 133.443-166.643-133.012-15.737-232.825-122.88-232.825-257.186v-51.092h526.875v50.877c0 134.521-91.837 238.43-220.537 256.323zM1072.721 348.618c78.040 16.168 136.677 85.154 136.677 167.505 0 94.424-77.177 171.17-171.816 171.17-94.855 0-171.816-76.746-171.816-171.17 0-81.273 57.128-149.396 133.443-166.643-133.012-15.737-232.825-122.88-232.825-257.186v-50.877h527.091v50.877c0 134.521-91.837 238.43-220.753 256.323zM306.338 348.618c78.040 16.168 136.677 85.154 136.677 167.505 0 94.424-76.962 171.17-171.816 171.17-94.639 0-171.816-76.746-171.816-171.17 0-81.273 57.128-149.396 133.443-166.858-133.012-15.737-232.825-122.88-232.825-257.186v-50.877h526.875v50.877c0 134.737-91.837 238.646-220.537 256.539z" />
<glyph unicode="&#xe917;" glyph-name="404" d="M391.491 325.982h-96.364v75.668h129.347c25.223 43.331 59.069 81.273 99.382 111.023h-228.729v75.668h297.715v-35.786c44.625 19.618 94.424 30.828 146.378 30.828 0.862 0 1.725 0 2.587 0v375.754h-741.807v-925.912l428.787-2.371c-33.63 55.188-53.032 120.077-53.032 189.278 0 36.648 5.605 72.219 15.737 105.849zM295.128 772.446h297.715v-70.71h-297.715v70.71zM221.831 325.982h-75.668v75.668h75.668v-75.668zM221.831 512.674h-75.668v75.668h75.668v-75.668zM221.831 701.952h-75.668v70.71h75.668v-70.71zM839.68 366.296l-98.735-98.735-98.951 98.735-47.427-47.427 98.951-98.735-98.951-99.166 47.427-47.427 98.951 98.735 98.735-98.735 47.859 47.427-99.166 99.166 99.166 98.735zM740.945 502.757c-155.864 0-283.055-126.976-283.055-283.055s126.976-283.055 283.055-283.055 283.055 127.192 283.055 283.271-126.976 282.84-283.055 282.84zM740.945-2.991c-123.096 0-222.909 100.029-222.909 222.693 0 123.096 99.813 222.693 222.693 222.693 123.096 0 222.693-99.813 222.693-222.693 0.431-122.664-99.382-222.693-222.477-222.693z" />
<glyph unicode="&#xe918;" glyph-name="addaccount" d="M762.503 437.437c-138.186 0-250.718-112.532-250.718-250.718s112.532-250.718 250.718-250.718 250.718 112.532 250.718 250.718-112.317 250.718-250.718 250.718zM762.503-10.536c-109.083 0-197.255 88.387-197.255 197.255 0 109.083 88.387 197.255 197.255 197.255 109.083 0 197.255-88.387 197.255-197.255 0.216-109.083-88.172-197.255-197.255-197.255zM591.549 455.114c-41.822 28.241-91.19 47.427-145.085 54.973 103.262 21.558 180.871 112.963 180.871 222.477 0 125.467-101.969 227.22-227.22 227.22s-227.22-101.753-227.22-227.005c0-108.005 60.362-198.333 161.253-221.4-175.912-20.911-323.368-162.978-323.368-341.261v-98.735h436.979c-6.036 28.888-9.485 65.752-9.485 92.268 0 116.197 61.224 233.688 153.277 291.463zM803.247 321.24h-65.752v-92.052h-92.268v-65.967h92.268v-92.052h65.752v92.052h92.268v65.967h-92.268z" />
<glyph unicode="&#xe919;" glyph-name="ann" horiz-adv-x="1147" d="M0-64h983.040v1024h-983.040v-1024zM163.624 837.12h655.36v-286.936h-655.36v286.936zM163.624 468.696h655.36v-82.136h-655.36v82.136zM163.624 304.64h655.36v-82.136h-655.36v82.136zM163.624 140.8h655.36v-82.136h-655.36v82.136zM1064.744 877.864h82.136v-941.864h-82.136v941.864z" />
<glyph unicode="&#xe91a;" glyph-name="applogo" horiz-adv-x="1156" d="M1155.288-15.064v155.864l-73.728 57.344-40.744-49.152-73.944 57.344 40.744 49.152-98.304 77.824-57.344-73.944-73.944 57.344 57.344 73.944-171.816 139.48 61.44 73.944-159.313 310.865-286.72 45.272-278.744-348.376 106.496-270.336 336.088-86.016 61.44 73.944 495.616-393.432 155.432 48.936zM205.016 468.48l-61.44 122.88 200.704 250.072 135.168-32.768-274.432-340.184z" />
<glyph unicode="&#xe91b;" glyph-name="announcement" horiz-adv-x="1444" d="M0 194.048l98.304-245.76 892.712-12.288-360.232 921.384zM1404.712 615.72c-53.248 135.168-151.552 241.448-282.408 299.008-110.592 48.936-229.16 57.56-344.064 28.672l24.576-110.592c90.328 24.576 188.416 16.168 274.432-24.576 102.184-45.056 184.32-131.072 221.184-233.472 37.080-106.496 37.080-221.184-8.192-323.584-37.080-90.328-106.496-159.744-192.512-204.8l57.56-102.184c106.496 57.56 192.512 143.576 241.448 258.048 57.344 130.856 61.224 278.528 7.976 413.48zM1138.472 509.224c-24.576 61.44-73.728 110.592-131.072 135.168-53.248 24.576-110.592 24.576-163.84 8.192l24.576-110.592c28.672 8.192 61.44 8.192 90.328-4.312 32.768-16.168 57.56-37.080 65.536-73.728 24.576-65.536-4.312-139.264-73.728-167.936l57.56-102.184c122.449 61.656 171.601 196.608 130.641 315.392z" />
<glyph unicode="&#xe91c;" glyph-name="apps" horiz-adv-x="1293" d="M1065.607 334.174h227.867v-305.044h-227.867v305.044zM1179.648 411.136v113.826h-569.775v-495.832h378.557v382.006zM874.604 866.87h-874.604v-687.050h378.557v-73.512h-187.554v-77.177h341.908v77.177h-36.864v73.512h36.864v419.085h341.693z" />
<glyph unicode="&#xe91d;" glyph-name="branches" horiz-adv-x="1121" d="M560.721 960c-193.374 0-349.453-163.84-349.453-360.448 0-249.856 320.566-630.784 336.95-647.168l12.288-16.384 12.288 16.384c12.288 16.384 336.95 401.408 336.95 647.168-3.449 196.608-159.96 360.448-349.022 360.448zM560.721 444.12c-90.543 0-164.487 73.728-164.487 163.84 0 89.896 74.159 163.84 164.487 163.84s164.487-73.728 164.487-163.84c0-90.112-73.944-163.84-164.487-163.84z" />
<glyph unicode="&#xe91e;" glyph-name="deblocking" horiz-adv-x="1151" d="M1153.132-15.064v155.864l-73.728 57.344-40.744-49.152-73.944 57.344 40.744 49.152-98.304 77.824-57.344-73.944-73.944 57.344 57.344 73.944-171.816 139.48 61.44 73.944-159.313 310.865-286.72 45.272-278.744-348.376 106.496-270.336 336.088-86.016 61.44 73.944 495.616-393.432 155.432 48.936zM202.86 468.48l-61.44 122.88 200.704 250.072 135.168-32.768-274.432-340.184z" />
<glyph unicode="&#xe91f;" glyph-name="calendar" d="M902.198 837.336v122.664h-123.096v-122.664h-450.344v122.664h-122.88v-122.664h-204.8v-901.336h1106.136v901.336h-205.016zM369.502 140.8h-204.8v163.84h204.8v-163.84zM369.502 427.736h-204.8v163.84h204.8v-163.84zM656.438 140.8h-204.8v163.84h204.8v-163.84zM656.438 427.736h-204.8v163.84h204.8v-163.84zM943.373 140.8h-204.8v163.84h204.8v-163.84zM943.373 427.736h-204.8v163.84h204.8v-163.84z" />
<glyph unicode="&#xe920;" glyph-name="certificate" horiz-adv-x="1293" d="M0 852.211v-808.421h1293.474v808.421h-1293.474zM650.833 164.945h-477.076v80.842c0 80.842 76.746 189.925 181.949 210.189-56.482 24.36-93.13 72.65-93.13 137.324 0 84.938 68.77 153.708 153.708 153.708s153.708-68.77 153.708-153.708c0-64.889-44.194-121.371-97.011-141.42 105.203-24.36 177.853-113.179 177.853-218.166v-68.77zM1131.789 164.945h-404.211v80.842h404.211v-80.842zM1131.789 326.845h-404.211v80.842h404.211v-80.842zM1131.789 488.313h-404.211v202.213h404.211v-202.213z" />
<glyph unicode="&#xe921;" glyph-name="check" d="M0 482.061l136.461 136.677 273.139-273.139 477.939 477.939 136.461-136.461-614.4-614.4-409.6 409.384z" />
<glyph unicode="&#xe922;" glyph-name="contact" d="M562.661 374.056c110.592 24.576 196.824 122.88 196.824 241.664 0 135.168-110.592 245.76-245.76 245.76s-245.976-110.592-245.976-245.76c0-114.688 81.92-213.208 188.416-237.568-188.416-20.48-331.776-175.912-331.776-368.424v-73.728h749.999v73.728c3.88 188.416-127.407 339.752-311.727 364.328zM833.213 734.936c-32.984 126.976-164.056 220.968-323.584 225.064-155.432 0-291.032-94.424-323.584-225.064-61.44-12.288-106.28-65.536-106.28-127.192 0-73.728 61.44-131.072 139.264-131.072v245.76c28.888 118.784 147.672 204.8 291.032 204.8 151.552-4.096 274.432-98.52 294.912-225.064v-204.8c-4.096-40.744-20.48-65.536-49.152-78.040-12.288 8.192-28.888 16.384-45.056 12.288-28.888-4.096-45.056-24.576-45.056-49.152 4.096-20.48 20.48-32.984 45.056-32.984 4.096 0 8.192 0 8.192 0 12.288 0 24.576 8.192 32.984 16.384 4.096 4.096 8.192 12.288 12.288 16.384 32.984 20.48 61.44 53.248 69.632 94.424 61.44 12.288 110.592 65.536 110.592 131.072-0.647 61.224-45.703 114.688-111.239 127.192z" />
<glyph unicode="&#xe923;" glyph-name="emarket" d="M413.48 387.638h520.623l89.896 439.134h-701.063l-24.36 116.844h-298.577v-88.172h227.005l139.048-673.037h629.059v88.387h-557.487zM588.315 43.574c0-50.482-40.924-91.405-91.405-91.405s-91.405 40.924-91.405 91.405c0 50.482 40.924 91.405 91.405 91.405s91.405-40.924 91.405-91.405zM953.075 43.574c0-50.482-40.924-91.405-91.405-91.405s-91.405 40.924-91.405 91.405c0 50.482 40.924 91.405 91.405 91.405s91.405-40.924 91.405-91.405z" />
<glyph unicode="&#xe924;" glyph-name="eye" d="M1003.089 480.984c-95.501 150.474-283.917 243.82-491.089 243.82s-395.372-93.561-491.304-244.035l-20.911-32.768 20.911-32.768c95.717-150.474 283.917-244.035 491.304-244.035s395.372 93.561 491.089 244.035l20.911 32.768-20.911 32.984zM504.886 630.164c21.558 0 39.020-17.462 39.020-39.020s-17.462-39.020-39.020-39.020c-40.96 0-74.375-31.043-74.375-69.416 0-21.558-17.462-39.020-39.020-39.020s-39.020 17.462-39.020 39.020c0 81.273 68.339 147.456 152.414 147.456zM512 233.715c-185.829 0-353.549 82.136-438.056 214.285 54.973 86.016 145.3 150.474 252.443 185.398-31.475-37.726-50.661-85.369-50.661-137.324 0-121.587 103.047-219.891 230.238-219.891s230.454 98.088 230.454 219.675c0 54.541-20.911 104.125-54.973 142.498 114.472-33.415 211.052-100.244 268.611-190.356-84.507-131.934-252.227-214.285-438.056-214.285z" />
<glyph unicode="&#xe925;" glyph-name="money" d="M545.63 499.955v121.155h119.646v79.764h-119.431v79.764h-79.764v-79.764h-12.719c-87.956 0-159.528-62.733-159.528-139.695s71.572-139.695 159.528-139.695h12.719v-159.528h-159.313v-79.764h159.313v-79.764h79.764v81.273c104.556 7.545 171.17 67.476 171.17 158.235-0.216 90.112-66.829 150.259-171.385 158.019zM466.082 501.248h-12.719c-44.194 0-79.764 26.947-79.764 59.931s36.002 59.931 79.764 59.931h12.719v-119.862zM545.63 263.033v157.373c41.391-3.665 91.621-20.264 91.621-78.686s-50.23-75.021-91.621-78.686zM834.722 737.523l59.284 53.032c-19.402 21.989-40.744 41.822-63.596 60.147l-49.368-62.302c19.187-15.306 37.080-32.552 53.679-50.877zM361.526 854.797l-27.81 74.806c-27.163-10.132-53.895-22.851-78.902-37.295l40.098-68.77c21.342 12.072 43.978 22.851 66.614 31.259zM159.528 699.365l-64.889 46.134c-16.815-23.929-31.69-49.152-44.409-75.237l72.003-34.493c10.348 21.989 23.067 43.331 37.295 63.596zM487.855 881.098l-4.527 79.549c-28.888-1.725-58.206-5.605-86.447-12.288l17.893-77.824c24.145 5.605 48.505 9.27 73.081 10.563zM101.322 584.246l-75.668 25.007c-9.054-27.594-15.737-56.266-20.264-85.154l78.686-11.426c3.88 23.929 9.485 48.074 17.246 71.572zM79.764 448.431v8.408l-79.764 1.725v-9.917c0-25.869 1.94-51.955 5.821-77.608l78.686 11.857c-3.018 21.773-4.743 43.547-4.743 65.536zM905.647 629.733l72.435 33.415c-12.072 26.516-26.732 51.955-43.331 76.099l-65.752-45.272c13.797-20.48 26.301-42.038 36.648-64.243zM776.731 888.212c-25.007 15.091-51.523 28.025-78.686 38.804l-29.103-74.59c22.851-8.623 45.272-20.049 66.398-32.552l41.391 68.339zM635.311 946.634c-28.025 7.114-57.344 11.426-86.232 13.581l-5.605-79.549c24.792-1.725 49.152-5.605 73.081-11.426l18.755 77.393zM941.218 505.775l78.902 10.348c-3.665 28.888-10.132 57.56-18.755 85.369l-76.099-23.929c7.33-23.283 12.935-47.643 15.953-71.788zM248.994 792.28l-48.505 63.38c-23.067-17.677-44.625-37.726-64.674-59.069l58.422-54.326c17.031 18.109 35.355 34.924 54.757 50.014zM720.896 68.797l38.589-70.063c25.223 14.013 49.799 30.397 72.866 48.721l-49.799 62.302c-19.618-15.306-40.098-29.103-61.656-40.96zM600.172 24.172l15.953-78.040c28.456 5.821 56.697 14.228 83.645 25.007l-29.103 73.944c-22.636-8.839-46.565-16.168-70.494-20.911zM96.364 328.785l-76.746-21.989c8.192-28.025 18.54-55.619 31.259-81.704l71.572 34.924c-10.348 21.773-19.402 45.056-26.085 68.77zM944.451 448.431c0-24.792-1.725-49.368-5.821-73.728l78.471-13.581c4.743 28.672 7.114 57.991 7.114 87.094v2.156l-79.764-1.94zM898.317 252.254l71.141-36.217c13.15 26.085 24.145 53.464 32.984 81.273l-76.099 23.498c-7.545-23.498-17.031-46.565-28.025-68.554zM823.296 147.267l57.344-55.404c20.264 21.127 38.804 43.763 55.404 67.907l-65.752 45.056c-14.228-20.48-29.965-39.882-46.996-57.56zM150.043 211.51l-66.614-43.763c15.953-24.36 34.061-47.427 53.895-68.77l58.422 54.326c-16.815 18.109-32.337 37.726-45.703 58.206zM513.509 15.117c-14.875 0.647-28.456 0.647-42.469 1.94l-7.545-79.549c16.6-1.725 33.199-2.587 50.014-2.156 12.719 0 25.007 0.647 37.295 1.509l-5.821 79.549c-10.348-0.647-20.696-1.293-31.475-1.293zM185.182 53.922c22.42-18.54 46.565-35.355 71.572-50.014l39.882 69.201c-21.342 12.288-41.607 26.516-60.793 42.253l-50.661-61.44zM315.823-25.411c26.947-11.21 54.973-20.264 83.429-26.732l17.462 77.824c-23.929 5.389-47.427 12.935-70.279 22.42l-30.612-73.512z" />
<glyph unicode="&#xe926;" glyph-name="index" d="M862.963 365.649c0 0 0.216 0 0 0 0.216 0 0 0 0 0zM869.861 358.104c-2.156 0.647 0.431 3.665-2.803 3.665 0 0-3.88 0-3.88 3.88v0 0c0-3.665 0-3.88 0-3.88v0c3.449 0 3.665-3.018 6.683-3.665zM882.149 350.343v0c0 3.88-3.88 0-3.88 3.88-3.88 3.88-3.88 3.88-7.545 3.88 0 0 3.88 0 3.88-3.88 0 0 3.88 0 3.88-3.88v0c0-0.431 0-0.647 0.216-0.862 0.216-2.156 3.449 0.862 3.449 0.862zM953.937 342.797l3.88-3.88c0 0 0 0 0 3.88-0.216 0-0.216 0-3.88 0zM886.892 343.875c0.216 0 0.216 0 0 0 0.647-0.647 1.293-0.862 1.94-0.862 0.216 0 0.431 0 0.862 0v0 0 0c0-0.216 0 2.803-2.803 0.862zM859.298 369.314v-2.371c0.862-0.431 1.725-1.293 3.665-1.509-0.862 0.216-3.665 0.647-3.665 3.88zM957.602 339.133c3.88 0 7.545-3.88 11.426-3.88 0-3.88 3.88 0 3.88 0-3.88 0-7.545 3.88-11.426 3.88h-3.88zM886.892 343.875c0 0-0.216 0.216-0.216 0.216s0.216 0 0.216-0.216zM923.54 324.042c0 0 0 0-3.88 3.88h-3.88c0 3.88-7.545 3.88-7.545 3.88 0 2.371-1.509 1.725-2.587 0.862 0.647-0.431 1.509-0.862 2.587-0.862 3.88-3.88 7.545-3.88 11.426-7.545l3.88-0.216zM512 960c-282.84 0-512-229.16-512-512s229.16-512 512-512 512 229.16 512 512-229.376 512-512 512zM980.237 324.042c0-15.091 0-11.426 0-15.091h-7.761c0 0 0 0 0-3.88h-3.88c0 0 0 0-1.078-1.078 0.647-0.647 1.078-1.293 1.078-2.803 0 0 0-3.88 3.88-3.88l3.88-3.88c-3.88 0 0 0-3.88 0h-3.88v-3.88c-3.88 0-3.88 3.88-7.545 3.88-3.88 0 0-3.88 0-3.88 0-0.431 0-0.647 0.216-0.862 0.647-2.156 3.665 0.647 3.665-2.803 0 0-3.018 0-3.665 2.803 0 0.216-0.216 0.647-0.216 0.862-3.88 0-3.88 3.88-7.545 3.88l-3.88 3.88c-3.88 0-3.88 3.88-7.545 0h-7.761c-3.88 0-7.545 3.88-7.545 3.88s0 0-3.88 0c0 0-3.88 0-3.88 3.88 0 0-3.88 0-3.88 3.88s-3.88 0-3.88 3.88c0 0-3.88 0-3.88 3.88l-3.88 3.88c-3.88 0-3.88 3.88-3.88 3.88s0 0 0 3.88h-3.88l-3.88 3.88c0 0 0 0 0 3.88 0 0 0 0 0 3.88v0c0 0-0.862 0-1.94 0.431-0.216 0-0.216 0.216-0.216 0.216-0.216 0-0.216 0.216-0.431 0.216-0.647 0.647-1.293 1.509-1.293 2.803v0c0 0-0.431 0-0.862 0-0.647 0.216-1.293 0.431-1.725 0.647 0 0-0.216 0-0.216 0.216-0.431-0.216-0.647-0.647-1.078-1.078 0 0-3.88 0-3.88 3.88 0 0-3.018 0-3.665 2.803 0 0.216-0.216 0.431-0.216 0.862v0c-3.88 0-3.88 3.88-7.545 3.88l-7.761 7.761c0 3.88-3.88 3.88-3.88 3.88v1.509c-0.862 0.431-1.94 0.431-3.88-1.509 0 0 0 0 0 3.88-3.88 0-7.545 3.88-7.545 3.88h-3.88c0 0-3.88 0-3.88 3.88h-3.88c0 0-3.88 0-3.88 3.88s-3.88 0-3.88 0 0 3.88-3.88 0h-3.88c0-3.88 7.545 0 7.545-3.88s3.88-3.88 3.88-3.88 0-3.88 3.88-3.88 3.88 0 3.88-3.88 3.88-3.88 3.88-3.88c1.293 0 1.94-0.431 2.803-0.862 0.216 0.216 0.647 0.647 1.078 0.862l3.88-3.88c0-0.431 0-0.647 0.216-0.862 0.647-2.156 4.096 0.431 7.545-2.803h3.88c0-0.216 0-0.431 0-0.431 0.431-0.216 1.078-0.647 1.725-1.293 0.862 0 1.94 0 1.94-1.94l3.88-3.88c0 0 0.431 0 0.862 0 0.647-0.216 1.293-0.431 1.725-0.647 0 0 0.216-0.216 0.216-0.216s0.216-0.216 0.216-0.216c0.431-0.431 0.647-1.078 0.647-1.725 0-0.431 0-0.862 0-0.862 0 3.88 0 0 3.88 0-3.88 0-3.88 0-3.88 0 0 0.216 0 0.431 0 0.862s-0.216 1.078-0.647 1.725c0 0-0.216 0.216-0.216 0.216s-0.216 0.216-0.216 0.216c-0.647 0.431-1.293 0.647-1.725 0.647-0.216 0-0.431 0-0.862 0 0 0-3.88 0-3.88 3.88-0.862 0.862-1.509 1.293-1.94 1.94-0.862 0-1.725 0-1.725 1.293-0.862 0.431-1.94 0.431-3.88 0.431 0 0 0 0-3.88 0 0 0-3.018 0-3.665 2.803 0 0.216-0.216 0.431-0.216 0.862-2.587 0-3.449 1.725-4.743 2.803-2.803-2.156-2.803 0.862-2.803 0.862-3.88 3.88-7.545 0-7.545 3.88-3.88 0-7.545 0-7.545 3.88l-3.88 3.88c0 3.88-3.88 3.88-3.88 3.88v3.88c0 0 0 3.88-3.88 3.88v3.88c-3.88 0-3.88 3.88-7.545 7.545l-3.88 3.88c0 3.88-3.88 0-3.88 7.545 0 0 0 3.88-3.88 3.88 0 0 0 0 0 3.88-3.88 0-3.88 3.88-7.545 7.545 0 0 0 0-3.88 3.88 0 0 0 3.88-3.88 3.88 0 3.88-3.88 0-3.88 3.88-3.88 0-3.88 3.88-3.88 3.88v3.88c0 0 0 3.88-3.88 3.88s-3.88 3.88-7.545 3.88c0 0 0 0-3.88 3.88 0 0-3.88 0-7.545 3.88 0 0 0 0-3.88 0 0 0 0 0-3.88 0 0 3.88-3.88 0-3.88 3.88-3.88 0-11.426 0-11.426-3.88-3.88 0-3.88 0-7.545 0-3.88 0-7.545 0-7.545 0-3.88 0-7.545 0-7.545-3.88h-3.88c0 0-3.88 0-3.88 3.88-3.88 0-3.88 3.88-7.545 0 0 0-3.88-3.88-7.545-3.88 0 0-3.88-3.88-7.545-3.88-3.88-3.88-11.426 0-11.426-3.88 0 0 0 0 0-3.88-3.88-3.88-7.545 0-11.426-3.88-3.88 0-7.545 0-11.426 0s-3.88 0-3.88 0-3.88 0-7.545-3.88c0-3.88 0-3.88 0-3.88s0-7.545 3.88-3.88c0-3.88-7.545 0-7.545-3.88 0 0 0-3.88-3.88 0-3.88 0-3.88 0-3.88-3.88-7.545 0-11.426 0-18.971 0-3.88 0-7.545 0-7.545-3.88 0 0-3.88 0-3.88-3.88-3.88 0 0-3.88-3.88-3.88 0 0-3.88 0-3.88-3.88l-3.88-3.88c0 0-3.88 0-3.88-3.88-3.88 0-7.545 0-11.426 0v3.88c-3.88 0-7.545 0-7.545 0l-3.88-3.88c0 3.88 0 3.88 0 7.545 0 0 3.88 0 0 3.88-3.449 0-6.899 0-10.348-2.803 0.431-3.665-4.743-1.509-4.743-4.743 0 0-0.431 0-1.078-0.216-0.647-1.078-1.509-2.371-2.803-3.665 0 0-3.88 0-3.88-3.88 0 3.88 0 3.88 3.88 3.88 0 2.587 1.725 3.449 2.803 3.665 1.293 2.156 2.156 3.88 4.743 3.88 0.431 0.431 0.647 0.647 1.078 0.862 0 0.647-0.431 1.725-1.078 2.803-3.88 0-7.545 0-11.426-3.88h-3.88c0 0 0 0 0 3.88 3.88 0 0 3.88 3.88 3.88 0 0-3.88 0-3.88 3.88 3.88 0 0 3.88 3.88 3.88h7.761c0 0 0 3.88 3.88 3.88v3.88h-3.88c0 0 0-3.88-3.88 0 0 0 0 0 0 3.88 0 0 0 0 3.88 0 0 0 3.88 0 3.88 3.88 0 0 3.88 0 3.88 3.88 0 0 3.88 0 3.88 3.88h3.88c0 0 3.88 0 3.88 3.88 0 0 0 0 0 3.88h-3.88v1.94h-3.88c-3.88 0-3.88-3.88-3.88-3.88v3.88c0 0 0 0-3.88 0 0 0-3.88 0-7.545-3.88-3.88 0-3.88-3.88-7.545-3.88 0 0 0 0 0 3.88h-3.88l3.88 3.88c0 0 0 3.88 3.88 3.88 0 0 3.88 0 3.88 3.88s3.88 0 3.88 3.88 7.545 0 7.545 3.88c0 0 0 3.88 3.88 3.88s3.88 3.88 7.545 0c0 0 3.88 3.88 7.545 3.88 0 0 0 3.88 3.88 3.88 0 0 3.88 0 3.88 3.88 3.88 0 3.88 0 3.88 3.88 0 0 0 0 3.88 0s3.88 0 3.88 3.88c0 0 0 0-3.88 0 0-1.94-2.156-1.94-4.096-1.94-1.078-3.018-4.096-5.605-7.114-5.605 0 3.88 0 3.88 3.88 3.88 0 1.725 1.725 1.94 3.449 1.94 0.216 0.647 0.431 1.293 0.431 1.94 0 0 0 0 0 3.88 3.88 0 0 3.88 3.88 3.88l3.88 3.88v3.88c0 0 0 3.88 3.88 3.88 0 0 0 0 0 3.88l3.88 3.88c3.88 0 0 3.88 3.88 3.88 0 3.88 3.88 0 3.88 3.88 0 0 3.88 0 3.88 3.88s-3.88 3.88-3.88 3.88v3.88c0 0 0 3.88-3.88 3.88 0 3.88-3.88 3.88-3.88 3.88 0 3.88-3.88 3.88-3.88 7.545 0 0 0 3.88-3.88 3.88v3.88l-3.88 3.88v3.88c-3.88 0-3.88 3.88-7.545 3.88 0 0 0 0-3.88 0 0 0 0 0 0 3.88h-3.88c0 0-3.88 0-3.88 3.88s-7.545 0-11.426 0h-18.971c-7.545 0-7.545 3.88-15.091 7.545 0 0-3.88 3.88-7.545 3.88s-3.88 3.88-7.545 3.88h-22.636c0 0-3.88 0-3.88-3.88l-3.88-3.88c0 0 0-3.88-3.88-3.88v-3.88c0 0 0-3.88-3.88-3.88s0-3.88-3.88-3.88c0 0-3.88 0-3.88-3.88 0 0 0 0 0-3.88 0 0 0-3.88-3.88-3.88v-3.88c-3.88 0 0-3.88-3.88-3.88 0 0 0-3.88-3.88-3.88 0 0 0-3.88-3.88-3.88 0-3.88-3.88-3.88-3.88-3.88 0-3.88-3.88 0-3.88-3.88-45.272-18.971-45.272-18.971-45.272-18.971v-3.88c0 0 0-3.88-3.88 0 0 0-3.88 0-3.88-3.88-3.88 0-3.88-3.88-7.545-3.88 0 0 0 0-3.88 0 0 0-3.88 0-3.88-3.88-3.88 0-3.88-3.88-7.545-3.88 0 0 0 0 0 3.88h-3.88c-3.88 0-3.88 0-7.545 0s0-3.88-3.88-3.88c0-3.88-3.88 0-3.88-3.88-3.88 0-7.545 0-7.545 0h-3.88c0 0-3.88 0-3.88-3.88-3.88 0-7.545-3.88-7.545-3.88h-3.88c0 0 0 0-3.88 0h-3.88v3.88c0 0-3.88 0-7.545 0 0-3.88-3.88 0-3.88-3.88s0-3.88-3.88-7.545c-3.88 0-3.88 3.88-3.88 0s-3.88-3.88-3.88-7.545c-3.88 0 0 0-3.88 0 0-3.88-3.88-3.88-3.88-3.88-3.88 0 0-3.88-3.88-3.88 0 0 0 0-3.88 0 0-3.88-7.545 0-7.545-3.88 0 0 0 0-3.88 0s-3.88 0-3.88-3.88c0 0-3.88 0-3.88-3.88 0 0-3.88 0-3.88-3.88-3.88 0-3.88-3.88-3.88 0-3.88-15.091-3.88-15.091-7.545-15.091 0 0 0 0-3.88 0h-3.88c0 0-3.88 0-3.88-3.88-3.88 0-7.545 0-7.545-3.88h-7.761c0 0-3.88 0-3.88-3.88-3.88 0-3.88-3.88-3.88-3.88l-3.88-3.88c0 0 0 0-3.88 0 0 0 0 0-3.88 0 0 0-3.88 0-3.88-3.88-3.88 0-3.88-3.88-7.545-3.88h-3.88c0 0-3.88 0-3.88-3.88h-3.88c-3.88 0 0-3.88-3.88-3.88l-3.88-3.88v-3.88c-3.88 0 0-3.88-3.88-3.88 0-3.88-3.88-3.88-3.88-7.545-3.88 0 0-3.88-3.88-3.88 0-3.88-3.88-3.88-3.88-3.88-3.88 0-3.88-3.88-3.88-3.88 0-3.88-3.88-3.88-3.88-3.88s0-3.88-3.88-3.88c0-3.88-3.88 0-3.88-3.88-3.88 0-3.88-3.88-7.545-7.545 0-3.88-3.88-3.88-3.88-3.88 0-3.88-3.88 0-3.88-3.88 0 0 0 0 0-3.88 0 0 0 0 0-3.88 0 0-3.88 0-3.88-3.88-3.88-3.88-7.545-3.88-11.426-7.545 0 0 0 0-3.88 0 0 0 0 0 0 3.88 0 0 0 3.88 3.88 3.88 0 0 0 3.88 3.88 3.88l3.88 3.88c3.88 0 0 3.88 3.88 3.88 0 3.88 3.88 0 3.88 3.88v3.88h-3.88c0-3.88-3.88 0-3.88-3.88-3.88 0 0-3.88-3.88 0 0 0 0 0 0-3.88-3.88 0-3.88-3.88-3.88-3.88s-3.88 0-3.88-3.88c-3.88 0 0 3.88-3.88 3.88l3.88 3.88c0 0 0 0 3.88 3.88 0 0 0 0 0 3.88h-3.88c-3.88 0-3.88 0-3.88-3.88h7.114c0-1.293 0-2.587 0-3.88 3.449 0 3.88 3.018 6.683 3.665 0.216 0 0.431 0.216 0.862 0.216-0.431 0-0.647 0-0.862-0.216-2.156-0.647 0.431-3.665-2.803-3.665 0-3.88-3.88-3.88-3.88-3.88 0-0.431 0-0.862 0-1.078v1.078c0 1.078 0 2.371 0 3.88v0c0 0 0 0-3.88-3.88 0 0 0-3.88-3.88 0l-3.88-3.88c0-3.88-3.88-3.88-7.545-3.88h-3.88c0 0 0 0 3.88 3.88 0 0 3.88 0 3.88 3.88 0 0 0 0 3.88 0s0 3.88 3.88 3.88c0 0 3.88 0 3.88 3.88s-3.88 0-3.88 0-3.88 0-3.88-3.88c-3.88 0-7.545-3.88-11.426-3.88v3.88c0 0 0 0 0 3.88h-3.88c0 0 0 0 3.88 3.88 0 0 3.88 0 3.88 3.88 0 0 0 3.88 3.88 3.88v3.88h-3.88c0 0 0 0-3.88 0 0 3.88 0 0-3.88 0 0 0 0 0-3.88 0 0 0 0 3.88 3.88 3.88s3.88 3.88 7.545 3.88c0 0 0 0 0 3.88 0 0 0 3.88-3.88 3.88 0-3.88-7.545 0-7.545-3.88s-3.88-3.88-3.88-3.88-7.545-3.88-7.545-3.88 0-3.88-3.88 0c3.88 0 3.88 3.88 3.88 3.88 0 3.88 3.88 3.88 3.88 7.545 0 0 3.88 0 3.88 3.88 0 0 0 0 0 3.88h3.88c0 3.88 3.88 0 3.88 3.88 3.88 0 0 3.88 3.88 0 0 3.88 3.88 3.88 3.88 3.88s0 0 0 3.88c3.88 0 0 3.88 3.88 3.88 0 3.88 3.88 0 3.88 3.88s0 0 3.88 3.88c0 0 3.88 0 3.88 3.88 3.88 0 3.88 0 3.88 3.88s0 3.88 3.88 3.88c0 3.88 3.88 3.88 7.545 3.88 0 3.88 3.88 0 3.88 3.88 3.88 3.88 7.545 3.88 7.545 3.88s0 3.88 3.88 3.88l2.803 2.803h3.88c0 0 0 0 3.88 0 0 0 3.88 0 3.88 3.88 3.88 0 3.88 0 3.88 0 0 3.88 3.88 3.88 3.88 3.88s0 0 3.88 0 3.88 3.88 3.88 3.88 7.545 0 7.545 3.88c0 0 3.88 0 3.88 3.88h6.683c3.88 0 7.545 3.88 7.545 3.88 3.88 0 0 3.88 3.88 3.88h3.665c3.88 0 3.88 0 7.545 3.88h3.88c3.88 0 3.88 3.88 7.545 3.88 0 0 3.88 0 3.88 3.88 3.88 0 3.88 3.88 7.545 3.88 0 0 0 3.88 3.88 3.88 0 3.88 3.88 3.88 3.88 3.88s3.88 0 0 3.88c0 0 0 0 3.88 3.88 0 3.88 3.88 0 3.88 3.88 0 0 0 3.88 3.88 3.88s3.88 3.88 3.88 3.88c3.88 0 3.88 3.88 3.88 7.545 0 3.88 0 3.88 3.88 3.88s3.88 3.88 3.88 7.545h3.88c0 3.88 3.88 7.545 7.545 7.545h3.88c0 0 3.88 0 3.88 3.88 0 0 3.88 0 3.88 3.88h3.88c3.88 0 3.88 0 7.545 0 0 3.88 7.545 0 7.545 3.88 3.88 0 7.545 0 11.426 0 0 0 3.88 0 3.88 3.88 3.88 0 0 3.88 3.88 0 0 3.88 3.88 0 7.545 0 3.88 0 7.545-3.88 7.545 0 3.88 0 7.545 3.88 7.545 3.88 0 3.88 0 3.88 3.88 7.545 0 3.88 3.88 3.88 3.88 3.88s3.88 0 0 3.88c0 0 0 0 0 3.88 0 0 0 3.88 3.88 3.88 0 0 0 0 0 3.88 3.88 0 0 3.88 3.88 3.88 7.545 3.88 11.426 3.88 7.545 7.545 0 0 3.88 0 3.88 3.88 0 0 0 0 0 3.88 3.88 0 3.88 3.88 3.88 3.88s0 0 0 3.88v3.88c0 0 0 3.88 3.88 3.88 0 0 0 0 0 3.88 0 0 0 0 0 3.88 0 0 0 3.88 3.88 3.88 0 3.88 0 3.88 0 3.88 3.88 0 0 3.88 3.88 3.88 0 0 0 0 0 3.88 0 0 0 3.88 3.88 3.88 0 3.88 3.88 3.88 3.88 7.545 0 0 0 3.88 3.88 3.88 0 3.88 3.88 3.88 3.88 3.88 0 3.88 3.88 0 3.88 3.88l3.88 3.88c3.88 0 3.88 3.88 7.545 3.88s3.88 0 7.545 3.88h15.091c0 0 0 0 3.88 0h11.641c0 0 3.88 0 3.88-3.88h3.88c3.88 0 11.426 0 15.091-3.88 0 0 3.88 0 7.545 0 3.88 0 3.88-3.88 7.545 0h3.88c7.545 0 7.545-3.88 11.426-3.88 0 0 0 0 3.88 0s7.545 0 11.426 0c0 3.88 3.88 0 3.88 3.88 0 0 0 0 3.88 0s3.88 0 7.545 0c0 3.88 3.88 0 3.88 3.88 3.88 0 3.88 0 7.545 0h15.091c0 0 3.88 0 3.88-3.88 3.88 0 3.88-3.88 7.545-3.88 0 0 3.88 0 3.88-3.88 3.88 0 3.88-3.88 7.545-3.88 0-3.88 3.88-3.88 3.88-3.88 0-3.88 3.88-3.88 3.88-3.88s0 0 3.88 0c0 0 0 0 3.88 0 3.88-3.88 3.88-3.88 7.545-7.545 3.88 0 3.88-3.88 3.88-7.545 0 0 0 0 0-3.88 0 0 0 0 0-3.88s3.88-7.545 0-7.545v-3.88c3.88 0 3.88-3.88 3.88-3.88 0-3.88 3.88 0 3.88-3.88l3.88-3.88c3.88 0 0-3.88 3.88-3.88s0-3.88 3.88-3.88v-3.88l3.88-3.88c0-3.88 3.88-3.88 3.88-3.88s0 0 3.88 0l3.88-3.88c0 0 0 0 3.88 0 0 0 0-3.88 3.88-3.88l3.88-3.88c3.88 0 7.545-3.88 11.426-3.88s3.88 3.88 3.88 3.88-3.88 0-3.88 3.88h-3.88c0 3.88 3.88 3.88 7.545 3.88 0 0 0 0 3.88 0s7.545 0 11.426 0 11.426 0 15.091 0c3.88 0 3.88 0 11.426 0 15.091-26.516 18.971-26.516 22.636-30.181v-3.88c0-3.88 0-3.88 0-3.88v-3.88c0-3.88 0-3.88 0-7.545 0 0 0 0 0-3.88 0 0 0-3.88 3.88-3.88 0 0 0-3.88 3.88-3.88 0 0 3.88 0 3.88 3.88 0 0 3.88-3.88 3.88-7.545 3.88 0 0-3.88 3.88-3.88 0 0 0-7.545 3.88-7.545 0 0 0-3.88 3.88-3.88 0-3.88 3.88-3.88 3.88-7.545 3.88 0 0-3.88 3.88 0 3.88 0 3.88-3.88 7.545-3.88 3.88 0 3.88 0 3.88-3.88 3.88 0 3.88-3.88 7.545-3.88 0 0 3.88 0 3.88-3.88 0 0 3.88 0 3.88-3.88l3.88-3.88c0 0 0-3.88 3.88-3.88 0 0 0-3.88 3.88-3.88 0-3.88 3.88-3.88 3.88-7.545 3.88 0 0-3.88 3.88-3.88 0-3.88 3.88-7.545 7.545-7.545 0-3.88 3.88 0 3.88-3.88 0 0 3.88 0 3.88-3.88 0 0 0-3.88 3.88 0 0 0 3.88 0 3.88-3.88 3.88 0 0-3.88 3.88-3.88l3.88-3.88c3.88 0 0-3.88 3.88-3.88 0 0 3.88 0 3.88-3.88 0 0 3.88 0 3.88-3.88 3.88 0 3.88-3.88 7.545-3.88 0-3.88 3.88-3.88 7.545-3.88 0 0 3.88 0 3.88-3.88 3.88 0 0-3.88 3.88-3.88 3.88-3.88 7.545-3.88 11.426-3.88 0-3.88 3.88-3.88 3.88-3.88s0 0 3.88 0 0-3.88 3.88-3.88 3.88-3.88 7.545-3.88c3.88 0 3.88-3.88 3.88-3.88 3.88-3.88 3.88-3.88 7.545-3.88 0 0 3.88 0 3.88-3.88 3.88-3.88 7.545-3.88 11.426-7.545 0-3.88 3.88 0 3.88 0 3.88 0 7.545-3.88 11.426-3.88h3.88c3.88 0 3.88 0 7.545 0 0-3.88 7.545-3.88 7.545-3.88s0 0 3.88 0h3.88c0 0 0 0 3.88-3.88 3.88 0 3.88 0 3.88-3.88v-3.88c3.88 0 3.88-3.88 7.545-3.88 0 0 0 0 3.88 0 0-3.88 3.88 0 3.88-3.88 3.88 0 0-3.88 3.88-3.88-10.779-2.587-10.779 1.078-14.659-2.587zM948.763 312.832c0 0 0.216 0 0.216 0s-0.216 0-0.216 0zM957.602 308.952v0 0zM950.056 312.616v0 0zM886.029 345.816c0 0.216 0 0.431 0 0.862-0.216 0-0.216-0.431 0-0.862z" />
<glyph unicode="&#xe927;" glyph-name="meow" horiz-adv-x="1160" d="M1157.443 77.42c-1.725 3.018-5.174 4.096-8.408 3.234-63.811-18.324-108.867-12.072-132.797 19.402-39.235 50.877-13.366 150.69-13.366 151.336 8.408 31.69 20.696 62.733 32.768 92.268 17.677 43.763 35.571 89.25 42.253 139.264 9.701 75.237-7.976 150.043-24.145 199.411-55.188 166.858-190.572 274.432-344.495 274.432-54.757 0-107.574-13.366-157.373-40.098-12.504 13.15-26.516 23.067-41.607 30.181-18.54 8.623-39.020 13.15-60.147 13.15-93.777 0-194.668-81.92-251.581-203.722-61.656-131.719-55.835-253.090-50.014-381.575 1.293-30.181 2.803-61.224 3.449-93.13 0-0.862 0.862-89.681-45.703-136.893-20.049-20.48-46.565-32.337-78.686-32.337v0c-6.036 0-12.288 1.94-18.755 2.371-4.096 0.216-6.899-1.078-7.976-4.312s0.647-6.467 3.449-8.192c0.862-0.647 67.476-34.924 156.295-53.032-7.114-2.371-14.875-4.312-23.067-4.312-3.449 0-6.899-2.803-7.33-6.252s1.725-7.114 5.174-8.192c3.449-1.078 50.877-15.522 104.34-15.522 36.002 0 74.59 6.899 104.771 28.672 63.165-57.991 141.42-92.915 226.358-92.915 68.339 0 132.365 22.636 187.554 61.656v0c66.829-61.009 124.389-75.884 164.056-75.884 34.061 0 54.973 10.563 56.913 11.641 3.018 1.725 4.312 4.958 3.449 8.192s-3.449 5.389-7.114 5.821c-18.54 0.216-31.69 7.33-40.744 15.522 24.145-6.467 45.918-9.27 65.105-9.27 62.733 0 97.873 27.163 100.244 29.319s3.449 5.821 2.156 8.623c-1.293 3.018-4.527 4.958-7.976 4.312-11.21-1.725-20.696-0.862-29.319 1.293 57.991 23.929 89.681 54.541 91.837 56.697 1.94 2.156 2.371 5.821 0.431 8.839zM569.775-2.991c-182.38 0-331.129 186.045-331.129 414.558 0 9.054 0.216 17.677 0.862 26.516 36.217 14.659 138.617 63.165 182.811 159.96 46.349-70.063 167.505-179.146 478.154-207.603-9.054-219.244-153.923-393.432-330.698-393.432zM497.341 324.689c0-44.41-26.832-80.411-59.931-80.411s-59.931 36.001-59.931 80.411c0 44.41 26.832 80.411 59.931 80.411s59.931-36.001 59.931-80.411zM741.16 295.37c0-44.41-26.832-80.411-59.931-80.411s-59.931 36.001-59.931 80.411c0 44.41 26.832 80.411 59.931 80.411s59.931-36.001 59.931-80.411z" />
<glyph unicode="&#xe928;" glyph-name="logout" d="M812.948 404.453l210.836 142.067-210.836 142.282v-108.221h-340.615v-64.458h340.615zM619.358 185.856h-219.244v524.504l-239.508 159.313h458.752v-188.416h90.328v278.744h-709.686v-864.472h160.606l239.508-159.528v159.528h309.571v335.441h-90.328z" />
<glyph unicode="&#xe929;" glyph-name="login" d="M960.835 960h-709.47v-309.571h90.328v219.244h498.419l-219.891-159.528v-524.072h-278.528v216.657h-90.328v-312.158h368.856v-154.57l219.891 154.57h120.724zM403.564 383.973l210.836 142.067-210.836 142.067v-108.005h-340.615v-64.458h340.615z" />
<glyph unicode="&#xe92a;" glyph-name="info" d="M512-64c-282.408 0-512 229.807-512 512 0 282.408 229.807 512 512 512 282.408 0 512-229.807 512-512 0.216-282.193-229.592-512-512-512zM512 862.127c-228.298 0-414.127-185.613-414.127-414.127s185.613-414.127 414.127-414.127 414.127 185.613 414.127 414.127-185.829 414.127-414.127 414.127zM438.703 527.764h147.24v-342.555h-147.24v342.555zM511.353 722.863h1.509c39.235 0 71.141-31.69 71.141-71.141v-1.509c0-39.235-31.69-71.141-71.141-71.141h-1.509c-39.235 0-71.141 31.69-71.141 71.141v1.509c0.216 39.451 32.121 71.141 71.141 71.141z" />
<glyph unicode="&#xe92b;" glyph-name="greenhand" horiz-adv-x="1287" d="M1173.827 826.988l-4.743 133.012-102.616-84.938-128.054 36.433 48.936-123.742-74.375-110.376 103.909 6.467c-18.54-38.589-59.069-127.407-94.639-206.093-0.431-0.216-1.078-0.431-1.509-0.647l-248.994-166.427c-55.619 49.368-126.114 82.782-206.309 93.992 118.784 24.576 208.249 130.21 208.249 256.108 0 144.222-117.491 261.713-261.713 261.713s-261.497-117.059-261.497-261.282c0-124.173 87.741-228.083 203.938-254.599-202.429-23.929-353.549-187.769-353.549-393v-77.608h800.445v77.177c0 57.991-11.21 111.885-31.69 160.606l244.682 163.409c35.786 23.929 45.703 72.435 21.558 108.436l-6.467 10.132c-10.348 15.306-24.792 25.438-41.176 30.612 29.965 70.71 60.578 143.36 74.806 177.637l65.32-82.998 33.199 128.916 125.036 45.703-112.748 71.357z" />
<glyph unicode="&#xe92c;" glyph-name="filtrate" d="M1024 826.772c0 68.554-229.807 125.036-511.784 125.036s-511.784-56.266-511.784-125.036v-3.88c0 0 0 0 0-3.88 3.88-11.857 16.168-24.145 32.121-36.217l358.723-431.373v-407.013l237.784 120.94v285.642l358.723 427.277c23.929 16.384 36.217 32.337 36.217 48.505zM511.784 871.181c177.421 0 306.338-24.145 378.988-44.409-72.65-20.264-201.566-44.409-378.988-44.409s-306.338 24.145-378.988 44.409c72.65 24.145 201.566 44.409 378.988 44.409z" />
<glyph unicode="&#xe92d;" glyph-name="preferential" d="M990.801 923.567c-22.42 19.402-50.445 27.594-81.92 23.498-58.853-7.761-120.293-57.775-153.277-124.82-9.27-18.971-28.025-58.853-40.744-99.597l-211.914 48.074 0.431-0.431-503.377-446.033 331.129-376.185 503.377 445.602-21.773 227.005c31.69 13.15 68.339 33.199 105.418 57.128 59.5 38.373 100.891 100.46 105.418 157.804 2.803 34.708-8.623 65.967-32.768 87.956zM591.764 379.877l-52.817 58.637-59.284-53.464c42.469-54.541 42.685-113.826-1.725-153.923s-103.262-33.63-153.277 14.228l-39.882-35.786-35.355 39.235 39.235 35.355-70.279 78.040 39.235 35.355 70.279-78.255 78.255 70.279-5.605 6.252c-38.804 43.116-39.882 105.849-2.156 139.911s100.029 26.516 139.048-16.6l5.605-6.252 39.235 35.355 35.355-39.235-39.235-35.355 52.817-58.637-39.451-35.139zM971.183 839.707c-3.449-40.313-36.648-88.819-81.704-117.922-30.397-19.833-58.637-35.355-82.136-46.349l-2.587 26.516-38.373 8.623c7.976 23.929 19.618 53.679 36.433 88.172 25.007 51.092 71.357 90.543 112.532 95.717 16.168 2.156 29.75-1.725 40.098-10.563 12.072-10.348 17.246-25.438 15.737-44.194zM363.466 280.495c20.264-18.54 50.445-36.002 78.902-10.132 28.672 25.869 14.444 57.775-1.94 79.764l-76.962-69.632zM433.314 496.505c-16.168-14.659-13.366-43.978 6.036-65.536l5.605-6.252 58.637 52.817-5.821 6.252c-19.402 21.558-48.074 27.379-64.458 12.719z" />
<glyph unicode="&#xe92e;" glyph-name="faq" d="M70.925 960v-812.948h263.869v-211.052l322.722 211.052h295.559v812.948h-882.149zM510.491 252.254c-31.475 0-56.697 25.223-56.697 56.697s25.223 56.697 56.697 56.697c31.475 0 56.697-25.223 56.697-56.697 0.216-31.259-25.223-56.697-56.697-56.697zM679.289 601.061c-12.504-21.558-39.451-48.721-80.842-85.8-21.342-19.187-34.708-21.127-39.667-32.768s-7.545-12.504-6.899-44.409h-92.052c-0.216 0-0.216 4.743-0.216 7.976 0 32.337 4.743 45.056 14.659 65.752s29.534 41.822 59.069 67.907c29.534 26.085 47.212 41.822 53.032 49.799 8.839 12.719 13.366 26.085 13.366 41.607 0 21.342-7.976 39.235-23.714 54.326s-37.080 22.636-63.596 22.636c-25.654 0-47.212-7.976-64.458-23.714s-29.103-39.882-35.786-72.435l-92.915 12.504c2.587 46.565 21.127 86.016 54.973 118.568 34.061 32.552 78.686 48.721 133.875 48.721 58.206 0 104.556-16.6 138.617-49.368 34.277-32.768 51.523-70.063 51.523-113.826 0-24.36-6.467-45.918-18.971-67.476z" />
<glyph unicode="&#xe92f;" glyph-name="eyeclose" d="M913.839 510.087c33.63 29.534 62.518 62.949 86.232 100.029l10.348 16.168-53.032 33.846-10.348-16.168c-84.938-133.659-254.383-216.657-441.721-216.657s-356.999 82.998-441.937 216.657l-10.348 16.168-53.032-33.846 10.348-16.168c26.947-42.469 61.44-80.195 101.322-112.748l-108.867-40.744 21.342-62.087 152.845 57.128c33.846-20.049 70.279-37.295 108.436-50.661l-82.782-90.974 45.918-44.84 105.634 116.197c45.918-10.563 94.208-16.168 144.007-16.815v-128.701h64.243v130.856c39.451 3.449 85.369 10.995 126.114 22.636l96.148-109.083 45.703 44.84-76.962 86.878c35.139 14.228 68.339 31.475 98.951 51.523l150.474-56.482 21.342 62.087-110.376 40.96z" />
<glyph unicode="&#xe930;" glyph-name="top" horiz-adv-x="1186" d="M590.255 643.746l316.254-552.313h-637.898l321.644 552.313zM590.255 960l-589.824-1024h1184.822l-594.998 1024z" />
<glyph unicode="&#xe931;" glyph-name="myesun" d="M582.494 421.053c122.233 27.163 217.304 135.815 217.304 267.102 0 149.396-122.233 271.845-271.845 271.845s-271.845-122.233-271.845-271.845c0-126.976 90.759-235.412 208.249-262.791-208.249-22.636-366.915-194.883-366.915-407.66v-81.704h828.901v81.704c4.958 208.465-140.126 376.185-343.848 403.348z" />
<glyph unicode="&#xe932;" glyph-name="news" horiz-adv-x="1328" d="M156.51 88.63v74.806h455.087v74.806h-455.087v77.824h455.087v74.806h-455.087v74.806h565.895l177.853 101.107 52.601 3.018v390.198h-951.997v-984.98h610.735v113.826h-455.087zM156.51 807.37h640.701v-263.437h-640.701v263.437zM725.423 124.632h146.809v-188.632h-146.809v188.632zM1180.51 391.087h146.809v-455.087h-146.809v455.087zM952.859 238.457h146.809v-302.457h-146.809v302.457zM1219.315 523.453l62.302-56.051 40.098 213.423-212.13-58.206 65.105-58.853-161.684-153.708-176.344-10.348-164.487-111.885 34.277-49.152 150.905 102.4 181.517 10.563z" />
<glyph unicode="&#xe933;" glyph-name="notice" horiz-adv-x="1274" d="M1265.448 10.159l-587.668 927.421c-8.839 14.013-24.36 22.42-40.744 22.42s-31.906-8.408-40.744-22.42l-587.668-927.421c-9.485-14.875-10.132-33.846-1.509-49.152s24.576-25.007 42.253-25.007h1175.336c17.677 0 33.63 9.701 42.253 25.007 8.408 15.306 8.192 34.277-1.509 49.152zM568.697 659.267h144.653v-335.225h-144.653v335.225zM719.171 152.657c0-43.763-35.571-79.117-79.117-79.117h-1.509c-43.763 0-79.117 35.571-79.117 79.117v1.509c0 43.763 35.571 79.117 79.117 79.117h1.509c43.763 0 79.117-35.571 79.117-79.117v-1.509z" />
<glyph unicode="&#xe934;" glyph-name="onlineopen" horiz-adv-x="1119" d="M501.437 396.045h-237.784v68.339h265.593v-51.092c24.576 11.21 53.679 18.324 82.567 18.324 3.665 0 7.114 0.216 10.779 0.216 6.036 0.216 10.995 0.216 17.246 0.216 6.899 5.389 15.306 10.779 20.696 15.306v512.647h-659.672v-809.068l352.472 0.647c8.408 41.391 27.163 84.938 54.973 117.706 11.426 52.601 46.781 99.382 93.13 126.76zM263.653 795.729h265.593v-68.339h-265.593v68.339zM263.653 628.871h265.593v-65.752h-265.593v65.752zM200.704 415.232h-68.339v65.752h68.339v-65.752zM200.704 582.306h-68.339v62.949h68.339v-62.949zM200.704 746.577h-68.339v62.949h68.339v-62.949zM1013.868 270.147c-27.379 73.297-98.735 158.235-198.548 161.253-59.715 1.94-115.981-26.732-153.277-70.71-15.953 5.821-33.199 8.839-50.445 8.839-75.884 0-137.971-57.128-141.204-128.916-34.493-31.475-56.913-81.058-56.913-128.916 0-93.561 86.663-175.697 185.613-175.697h333.069c98.735 0 185.613 82.136 185.613 175.697 0.431 65.967-43.116 130.21-103.909 158.451zM932.595 4.77h-332.854c-68.339 0-119.646 56.697-119.646 108.436 0 32.337 18.54 68.339 43.547 85.369l16.168 11.21-2.803 25.223c0 37.942 33.63 68.77 75.237 68.77 15.522 0 30.397-4.312 42.9-12.288l28.456-18.324 17.462 29.103c23.283 38.589 67.261 62.949 115.981 63.596 72.435 0 130.856-52.601 132.797-119.431l0.862-23.498 22.636-6.467c43.978-13.366 78.902-58.206 78.902-102.831 0-52.386-51.092-108.867-119.646-108.867zM824.805 300.328h-62.949v-101.322h-101.322v-62.949h101.322v-103.909h62.949v103.909h103.909v62.949h-103.909z" />
<glyph unicode="&#xe935;" glyph-name="onlinemsg" d="M82.136 960v-826.961h232.825v-197.039l304.829 197.039h322.291v826.961h-859.944zM807.559 332.881h-594.136v62.949h594.136v-62.949zM807.559 530.136h-594.136v68.554h594.136v-68.554zM807.559 727.175h-594.136v68.554h594.136v-68.554z" />
<glyph unicode="&#xe936;" glyph-name="openaccount" d="M1011.712 345.6l-57.344 49.152-73.728-77.824h-376.832v-380.928h417.792v311.080l90.112 98.52zM843.776 13.824h-266.24v229.376h229.376l-98.304-102.4-77.824 77.824-53.464-53.464 131.072-131.072 126.976 139.264v-159.744l8.408 0.216zM733.184 960h-720.896v-909.312h454.656v303.104h266.456v606.208zM212.776 460.288h-49.152v49.152h49.152v-49.152zM212.776 611.84h-49.152v49.152h49.152v-49.152zM212.776 759.296h-49.152v49.152h49.152v-49.152zM581.632 458.779h-303.104v50.661h303.104v-50.661zM581.632 610.115h-303.104v50.014h303.104v-50.014zM581.632 759.512h-303.104v48.936h303.104v-48.936z" />
<glyph unicode="&#xe937;" glyph-name="pc" horiz-adv-x="1145" d="M0.647 960v-785.57h472.98v-119.215h-197.47v-119.215h588.099v119.215h-197.47v119.215h477.076v785.57h-1143.215zM1020.551 293.861h-904.569v551.020h904.785v-551.020z" />
<glyph unicode="&#xe938;" glyph-name="temppassword" horiz-adv-x="1099" d="M1016.239 405.315c-51.739 50.661-119 77.608-190.787 76.099l1.078-55.188c56.266 1.94 109.945-20.264 151.121-60.578 42.038-40.96 65.967-98.52 65.967-157.157 0-120.077-97.657-217.735-217.735-217.735s-215.795 95.933-217.735 218.166c-0.862 60.578 22.42 115.55 64.243 155.648l-2.587-77.177 52.386 48.936 4.096 119.431-119.431 4.096-52.386-48.936 83.645-3.018c-54.973-50.661-85.8-121.802-84.723-199.842 2.371-152.63 122.018-272.276 272.707-272.276 150.259 0 272.707 122.233 272.707 272.707 0 73.728-30.181 145.516-82.567 196.824zM781.043 347.325v-205.231h207.603v66.614h-135.815v138.617zM811.87 575.407c13.581 0 27.81-1.078 40.96-2.371v112.748h-106.496v274.216h-644.581v-274.432h-101.322v-612.675h494.107c-21.773 45.272-33.846 97.226-33.846 151.336 0 193.59 157.588 351.178 351.178 351.178zM202.86 858.678h442.152v-173.11h-442.152v173.11z" />
<glyph unicode="&#xe939;" glyph-name="subscription" horiz-adv-x="1143" d="M815.751 960h-815.751v-1015.592h815.751v1015.592zM244.682 266.483h-81.704v81.704h81.704v-81.704zM244.682 470.636h-81.704v81.704h81.704v-81.704zM244.682 674.358h-81.704v81.704h81.704v-81.704zM652.773 266.483h-326.387v81.704h326.387v-81.704zM652.773 470.636h-326.387v81.704h326.387v-81.704zM652.773 674.358h-326.387v81.704h326.387v-81.704zM897.455 960h244.682v-815.751h-244.682v815.751zM1134.161 103.074l-118.568-167.074-118.137 167.074z" />
<glyph unicode="&#xe93a;" glyph-name="tempaccount" d="M580.77 467.187c-40.96 27.594-88.819 46.349-141.635 53.679 100.675 20.911 176.559 110.376 176.559 217.304 0 122.233-99.597 221.831-221.831 221.831s-221.831-99.597-221.831-221.831c0-105.203 58.637-193.59 157.157-216.010-171.601-20.48-315.823-159.097-315.823-333.069v-97.873h426.846c-5.821 31.043-9.27 64.889-9.27 90.759 0.431 113.61 60.147 228.945 149.827 285.211zM935.828 361.768c-46.781 45.918-108.221 70.279-173.11 68.985l1.078-50.014c51.092 1.725 99.813-18.324 137.108-54.757 38.157-37.511 59.931-89.465 59.931-142.713 0-109.083-88.603-197.686-197.686-197.686-109.299 0-195.746 86.878-197.686 197.901-0.862 54.973 20.48 104.987 57.991 141.42l-2.587-70.279 47.643 44.409 3.88 108.221-108.221 3.88-47.643-44.409 75.884-2.587c-50.014-45.918-77.824-110.376-76.962-181.302 1.94-138.617 110.808-247.053 247.485-247.053 136.461 0 247.485 111.023 247.485 247.485 0.216 66.614-26.947 131.934-74.59 178.499zM910.821 184.347h-124.173v123.958h-61.871v-186.26h186.045z" />
<glyph unicode="&#xe93b;" glyph-name="reserve" d="M732.968 40.987l-120.724 123.958 47.643 50.877 73.081-73.081 130.425 146.163 50.877-47.643zM764.659 384.404c108.005 0 197.039-89.034 197.039-197.039s-89.034-197.039-197.039-197.039-197.039 89.034-197.039 197.039c-3.018 107.789 86.016 197.039 197.039 197.039zM764.659 438.515c-139.695 0-251.149-111.239-251.149-251.149s111.239-251.149 251.149-251.149 251.365 111.023 251.365 250.934-114.472 251.365-251.365 251.365v0zM593.273 454.252c-41.391 28.672-92.052 47.643-146.163 54.11 104.771 22.205 181.086 114.472 181.086 222.693 0 126.976-101.753 228.945-228.945 228.945s-229.16-101.753-229.16-228.945c0-108.005 60.362-200.057 162.115-222.693-177.853-22.205-324.231-162.115-324.231-343.417v-95.286h438.703c-6.252 31.69-9.485 66.614-9.485 92.052 0.431 117.706 63.811 235.412 156.079 292.541z" />
<glyph unicode="&#xe93c;" glyph-name="search" d="M123.096 839.923c-163.624-163.624-163.624-429.218 4.096-597.154 151.336-151.336 384.593-171.816 560.074-32.768l274.001-274.001 61.224 61.224-273.785 274.001c139.048 179.793 118.568 408.953-32.768 560.074-163.409 167.936-429.218 172.248-592.842 8.623zM662.905 299.897c-130.856-130.856-347.729-130.856-478.585 0s-130.856 347.729 0 478.585 347.729 130.856 478.585 0 130.856-347.729 0-478.585z" />
<glyph unicode="&#xe93d;" glyph-name="sitemap" horiz-adv-x="1291" d="M1177.708 240.397v223.771h-493.245v115.766h150.905v380.066h-379.85v-380.066h150.905v-115.766h-490.658v-223.771h-115.766v-304.397h304.613v304.397h-115.981v150.905h417.792v-150.905h-110.592v-304.397h299.224v304.397h-110.592v150.905h417.792v-150.905h-115.981v-304.397h304.613v304.397z" />
<glyph unicode="&#xe93e;" glyph-name="q" d="M512 960c-282.408 0-512-229.807-512-512 0-282.408 229.807-512 512-512 282.408 0 512 229.807 512 512 0.216 282.193-229.592 512-512 512zM512 33.873c-228.298 0-414.127 185.613-414.127 414.127 0 228.083 185.613 414.127 414.127 414.127s414.127-185.613 414.127-414.127-185.829-414.127-414.127-414.127zM675.84 708.851c-38.157 36.864-89.896 54.973-154.786 54.973-61.656 0-111.454-18.109-149.396-54.326s-58.206-80.411-61.44-132.15l103.909-13.797c7.33 36.217 20.48 63.165 39.882 80.842 19.187 17.893 43.331 26.516 71.788 26.516 29.75 0 53.464-8.408 71.141-25.438 17.462-17.031 26.301-37.295 26.301-61.224 0-17.031-5.174-32.768-15.091-46.996-6.467-9.054-26.085-28.025-59.069-56.913-32.768-28.888-54.973-55.188-65.967-78.471s-16.384-53.032-16.384-88.819c0-3.449 0-13.366 0.216-29.103h102.4c-0.647 33.63 1.94 56.913 7.976 70.279 5.605 12.935 20.696 30.181 44.409 51.739 46.134 41.607 76.099 74.159 90.328 98.304s21.127 49.583 21.127 76.746c0 48.29-19.187 91.19-57.344 127.838zM587.237 181.113c0-35.004-28.376-63.38-63.38-63.38s-63.38 28.376-63.38 63.38c0 35.004 28.376 63.38 63.38 63.38s63.38-28.376 63.38-63.38z" />
<glyph unicode="&#xe93f;" glyph-name="newuser" d="M771.341 342.366l46.565-92.483 104.125-14.875-75.453-72.003 17.893-101.538-93.13 48.074-93.13-48.074 17.893 101.538-75.453 72.003 104.125 14.875 46.565 92.483zM768.323 384.189c111.239 0 201.351-88.387 201.351-197.255s-90.112-197.255-201.351-197.255c-111.239 0-201.351 88.387-201.351 197.255s90.112 197.255 201.351 197.255zM768.323 437.437c-140.989 0-255.677-112.532-255.677-250.503 0-138.186 114.688-250.503 255.677-250.503s255.677 112.317 255.677 250.503c0 137.971-114.688 250.503-255.677 250.503v0zM593.92 455.114c-42.685 28.241-92.915 47.427-148.103 54.973 105.203 21.558 184.536 112.963 184.536 222.477 0 125.251-104.125 227.22-231.963 227.22s-231.963-101.969-231.963-227.22c0-107.789 61.009-198.117 164.056-221.184-179.362-20.696-330.483-162.978-330.483-341.261v-99.166h447.111c-6.036 31.69-9.701 65.967-9.701 92.483 0 116.197 62.518 234.119 156.51 291.678z" />
<glyph unicode="&#xe940;" glyph-name="ebill" d="M0-108.409h1024v1113.034h-1024v-1113.034zM163.84 845.528h696.32v-516.743h-696.32v516.743zM163.84 249.236h696.32v-79.549h-696.32v79.549zM163.84 90.355h696.32v-79.549h-696.32v79.549zM645.443 560.101c-17.462 14.228-31.043 28.241-112.963 42.253v108.436c40.96-0.862 81.92-8.408 122.88-23.067v51.092c-40.96 9.701-72.65 14.659-111.454 14.659-1.509 0 29.534-0.216-11.426-0.216v52.817h-40.96v-55.835c0-3.88-45.272-10.995-67.476-22.636-33.415-17.246-45.056-39.667-45.056-67.476 0-20.911 10.563-38.373 26.732-52.386s40.313-28.025 89.681-41.822c1.725-0.431-3.88-0.862-3.88-1.293v-108.221c-40.96 0.431-81.92 10.779-122.88 31.259v-53.895c40.96-13.15 70.925-19.618 117.922-19.618 2.803 0 4.958 0.216 4.958 0.216v-45.487h40.96v48.29c40.96 3.665 67.261 10.779 89.465 21.989 33.415 16.815 50.014 39.451 50.014 68.554 0 20.48-8.839 38.157-26.516 52.386zM462.201 631.889c-11.641 7.545-12.504 18.109-12.504 32.337 0 14.013 0.862 25.438 17.893 34.061 9.054 4.527 23.929 7.761 23.929 9.917v-92.699c0 6.252-21.989 11.641-29.319 16.384zM532.48 458.348v93.346c40.96-5.605 39.451-10.995 47.427-15.953 14.228-8.623 16.168-19.618 16.168-33.415 0.216-23.929-22.636-38.589-63.596-43.978z" />
<glyph unicode="&#xe941;" glyph-name="manual" horiz-adv-x="884" d="M454.009 314.125l1.078-2.371h33.63l-1.293 2.371h-33.415zM455.087 310.676l1.078-2.371h34.493l-1.293 2.371h-34.277zM874.819 754.984c0 0-523.426 0-696.32 0.216v-566.541h-43.978v566.326c-6.683 0-10.779 0-10.995 0-43.978 0-76.962 34.708-76.962 79.117 0 45.272 34.061 79.333 78.902 79.333h668.941l-23.498 45.272h-645.443c-65.105 0-116.628-48.721-122.233-112.963 0 2.156-0.216-777.809-0.216-777.809 0-73.728 57.991-128.701 129.563-128.701h742.238c3.018 0 6.036-4.743 6.036-4.527v820.278h-6.036zM665.492 198.575l-130.425 70.71-130.425-70.71 25.007 150.043-105.634 106.28 145.947 21.773 65.32 136.461 65.32-136.461 145.947-21.773-105.634-106.28 24.576-150.043z" />
<glyph unicode="&#xe942;" glyph-name="install" horiz-adv-x="1134" d="M1096.435 214.097h-104.771v-139.264h-849.381v139.264h-141.635v-278.528h1132.436v278.528h-36.648zM900.689 531.86l-49.152 50.23-24.576 25.007-24.792 25.007-164.487-156.295v483.759h-141.42v-483.759l-164.487 156.295-98.304-100.029 333.716-317.332 333.501 317.117z" />
<glyph unicode="&#xe943;" glyph-name="roundCheck" d="M512 960c-282.84 0-512-229.16-512-512s229.16-512 512-512c282.84 0 512 229.16 512 512s-229.16 512-512 512zM461.986 178.957l-281.977 281.977 113.826 113.826 164.271-164.271 296.852 334.147 117.706-109.73-410.678-455.949z" />
<glyph unicode="&#xe944;" glyph-name="roundKey" d="M180.44 541.13l54.973-89.034 176.559 242.526-101.753 24.792-129.779-178.284zM512 959.784c-282.84 0-512-229.16-512-511.569 0-282.624 229.16-511.784 512-511.784s512 229.16 512 511.784c0 282.408-229.16 511.569-512 511.569zM860.376 184.778l-101.969-37.726-330.267 240.155-41.176-56.697-217.95 36.864-69.416 172.248 179.793 246.838 185.398-13.15 101.969-195.746-36.002-49.368 130.641-95.070-40.96-56.482 26.085-18.971 40.96 56.482 78.471-56.913-20.48-28.241 52.17-37.942 20.48 28.241 42.9-31.259-0.647-103.262z" />
<glyph unicode="&#xe945;" glyph-name="roundTime" d="M512 959.784c-282.84 0-512-229.16-512-511.784s229.16-511.784 512-511.784c282.84 0 512 229.16 512 511.784s-229.16 511.784-512 511.784zM473.627 393.027v397.528h119v-278.528h278.744v-118.784h-397.743z" />
<glyph unicode="&#xe946;" glyph-name="roundClose" d="M512 960c-282.84 0-512-229.16-512-512s229.16-512 512-512 512 229.16 512 512c0 282.84-229.16 512-512 512zM795.702 253.763l-95.501-95.501-191.003 191.003-191.003-191.003-95.501 95.501 191.003 191.003-191.003 191.003 95.501 95.501 191.003-191.003 191.003 191.003 95.501-95.501-191.003-191.003 191.003-191.003z" />
<glyph unicode="&#xe947;" glyph-name="roundSearch" d="M460.045 700.012c-40.96 0-79.764-12.935-112.532-37.726-82.351-62.302-98.735-180.008-36.433-262.36 35.571-47.212 90.112-74.159 149.612-74.159 40.96 0 79.98 12.935 112.748 37.726 39.882 30.181 65.536 73.944 72.435 123.527s-5.821 98.735-36.002 138.617c-35.786 47.212-90.328 74.375-149.827 74.375zM512 960c-282.84 0-512-229.16-512-512s229.16-512 512-512c282.84 0 512 229.16 512 512s-229.16 512-512 512zM724.992 83.672l-136.893 181.302c-40.529-20.48-84.291-31.259-127.838-31.259-86.232 0-166.643 40.96-220.537 112.532-45.056 59.715-64.674 132.797-54.973 206.309 9.701 73.728 47.643 139.048 107.143 183.889 47.859 36.217 104.771 55.404 164.271 55.404 88.172 0 169.661-41.176 223.987-112.963 83.429-110.592 76.099-254.599-16.384-356.136l137.324-181.733-76.099-57.344z" />
<glyph unicode="&#xe948;" glyph-name="roundPlus" d="M873.957 809.957c-199.842 199.842-524.072 199.842-724.13 0-200.057-200.057-199.842-524.072 0-724.13 199.842-199.842 524.072-200.057 724.13 0s200.057 524.288 0 724.13zM575.38 110.188h-134.952v270.12h-270.12v134.952h270.12v270.12h134.952v-270.12h270.12v-134.952h-270.12v-270.12z" />
<glyph unicode="&#xe949;" glyph-name="arrow" d="M89.896 520.65l124.605-138.833 208.249 216.657v-662.474h179.146v662.474l208.034-216.657 124.389 138.833-422.319 439.35-422.104-439.35z" />
<glyph unicode="&#xe94a;" glyph-name="404New" horiz-adv-x="2296" d="M1758.693 359.828c-47.643 0-95.501 11.21-135.599 29.319-10.348 4.743-14.875 16.815-10.132 27.163s16.815 14.659 27.163 10.132c69.416-31.475 162.331-37.511 226.789 3.018-38.373 6.036-75.884 15.522-112.532 28.456-9.917 3.449-15.522 14.013-13.15 24.145 2.587 10.132 12.288 16.6 22.851 15.306 81.273-11.857 166.427-8.408 246.407 10.348 24.576 5.605 62.949 18.109 81.92 42.469l-141.42 6.683c-10.995 0.431-19.618 9.701-19.402 20.911 0.216 10.995 9.27 20.049 20.264 20.049 62.518 0.431 126.976 1.078 185.182 22.205 42.685 15.522 91.405 48.721 110.808 98.088-114.257 21.342-230.669 33.846-322.506-2.371-216.010-85.154-329.836-271.198-330.914-273.139-5.821-9.701-18.324-12.719-28.025-6.899s-12.719 18.54-6.899 28.025c4.958 8.192 122.233 199.842 350.963 290.169 107.574 42.469 240.155 25.223 367.562 0.216 5.389-1.078 10.132-4.096 13.15-8.839 3.018-4.527 4.096-10.132 3.018-15.522-13.581-64.458-68.554-121.371-143.144-148.318-3.018-1.078-6.252-2.156-9.27-3.234 1.94-3.88 2.587-8.408 1.725-12.719-8.623-46.349-52.601-81.058-123.527-97.657-28.456-6.683-56.913-11.426-85.585-14.444 0.216-0.431 0.431-1.078 0.647-1.509 2.803-7.114 1.509-15.306-3.665-21.127-45.056-50.877-108.867-70.925-172.679-70.925zM537.223 359.828c-63.811 0-127.407 20.049-172.248 70.925-5.174 5.821-6.467 14.013-3.665 21.127 0.216 0.431 0.431 1.078 0.647 1.509-28.672 3.018-57.344 7.761-85.585 14.444-70.925 16.384-114.904 51.092-123.527 97.657-0.862 4.312-0.216 8.839 1.725 12.719-3.018 1.078-6.252 2.156-9.27 3.234-74.59 26.947-129.563 83.86-143.144 148.318-1.078 5.389 0 10.995 3.018 15.522s7.761 7.761 13.15 8.839c127.407 25.007 259.988 42.253 367.562-0.216 228.729-90.328 346.004-281.977 350.963-290.169 5.821-9.701 2.587-22.205-6.899-28.025-9.701-5.821-22.205-2.803-28.025 6.899-1.078 1.94-115.335 187.985-330.914 273.139-91.837 36.217-208.465 23.714-322.506 2.371 19.618-49.368 68.339-82.782 110.808-98.088 58.206-21.127 122.664-21.773 185.182-22.205 11.21 0 20.049-9.054 20.264-20.049s-8.408-20.264-19.402-20.911l-141.42-6.683c18.971-24.36 57.344-36.648 81.92-42.469 79.98-18.54 165.133-22.205 246.407-10.348 10.779 1.293 20.264-5.174 22.851-15.306s-3.018-20.696-13.15-24.145c-36.648-12.935-74.375-22.42-112.532-28.456 64.458-40.529 157.373-34.493 226.789-3.018 10.132 4.527 22.42 0 27.163-10.132 4.527-10.348 0-22.42-10.132-27.163-40.529-18.109-88.387-29.319-136.030-29.319zM1118.639 557.514c13.366 0 27.594 6.252 41.822 18.755 14.875 12.719 27.379 29.534 37.295 49.799s14.875 39.451 14.875 57.344c0 11.857-2.587 20.911-7.761 26.947-4.958 5.821-11.857 8.623-21.342 8.623-14.013 0-28.672-6.036-43.763-18.109-15.522-12.288-28.456-28.456-38.373-48.074-10.132-19.618-15.091-38.373-15.091-56.051 0-11.641 3.234-21.342 9.485-28.672 5.605-7.114 13.366-10.563 22.851-10.563zM731.244 960v-1024h818.338v1024h-818.338zM1066.469 671.555c14.228 24.36 32.337 44.625 54.11 60.147 22.205 15.737 43.331 23.714 63.165 23.714 21.558 0 38.804-6.899 51.308-20.696 12.288-13.581 18.54-32.337 18.54-55.404 0-23.283-6.899-47.643-20.48-72.65s-31.043-45.703-51.955-61.44c-21.342-16.168-42.469-24.145-63.165-24.145-21.773 0-39.451 7.114-52.817 21.342-13.366 14.013-20.049 33.415-20.049 57.991-0.216 22.851 7.114 46.781 21.342 71.141zM832.135 613.349c-4.312 4.743-6.683 9.917-6.683 15.737 0 4.096 1.94 12.719 18.54 40.313 12.072 19.833 26.085 38.373 41.607 54.973 16.6 17.462 29.965 26.085 40.529 26.085 16.6 0 18.324-9.054 18.324-13.15 0-5.389-3.234-10.348-9.917-14.659-13.15-8.839-26.947-23.714-40.744-44.409-12.072-17.893-18.54-28.888-21.989-35.786 13.15 0.216 37.726 1.078 72.435 2.156 10.995 28.672 20.48 51.308 28.025 67.476 7.976 16.815 13.797 27.81 17.893 32.984 4.958 6.467 10.995 9.701 17.893 9.701 8.408 0 13.581-5.174 13.581-13.797 0-2.803-0.862-7.976-7.545-21.989-4.743-9.701-9.485-21.127-15.091-34.708l-14.659-38.373c12.935 0.431 20.911 0.431 24.36 0.431 4.958 0 8.839-1.078 11.641-3.018 3.234-2.371 4.743-6.467 4.743-12.288 0-6.683-2.156-11.857-6.467-15.953s-9.917-6.036-17.031-6.036c-12.504 0-22.851 0-30.397-0.216-8.623-25.007-13.797-43.978-15.737-56.266-1.94-11.641-3.88-19.187-6.252-23.498-3.018-5.389-8.839-7.976-17.462-7.976-6.036 0-10.995 2.156-14.444 6.252-3.234 3.665-4.958 8.839-4.958 14.659 0 10.348 6.036 31.906 18.324 65.752-49.583-1.078-73.512-1.725-81.92-1.725-6.467 0.216-12.072 2.587-16.6 7.33zM1426.701 99.84h-572.793v40.96h572.793v-40.96zM1426.701 222.72h-572.793v40.96h572.793v-40.96zM1426.701 345.6h-572.793v40.96h572.793v-40.96zM1463.134 614.858c-4.312-4.096-9.917-6.036-17.031-6.036-12.504 0-22.851 0-30.397-0.216-8.623-25.007-14.013-43.978-15.737-56.266-1.94-11.641-3.88-19.187-6.252-23.498-3.018-5.389-8.839-7.976-17.462-7.976-6.036 0-10.995 2.156-14.444 6.252-3.234 3.665-4.958 8.839-4.958 14.659 0 10.348 6.036 31.906 18.324 65.752-49.583-1.078-73.512-1.725-81.92-1.725-6.467 0-12.072 2.371-16.6 7.114-4.312 4.743-6.683 9.917-6.683 15.737 0 4.096 1.94 12.719 18.54 40.313 12.072 19.833 26.085 38.373 41.607 54.973 16.6 17.462 29.965 26.085 40.529 26.085 16.6 0 18.324-9.054 18.324-13.15 0-5.389-3.234-10.348-9.917-14.659-13.15-8.839-26.947-23.714-40.744-44.409-12.072-17.893-18.54-28.888-21.989-35.786 13.15 0.216 37.726 1.078 72.435 2.156 10.995 28.672 20.48 51.308 28.025 67.476 7.976 16.815 13.797 27.81 17.893 32.984 4.958 6.467 10.995 9.701 17.893 9.701 8.623 0 13.581-5.174 13.581-13.797 0-2.803-0.862-7.976-7.545-21.989-4.743-9.701-9.485-21.127-15.091-34.708l-14.659-38.373c12.935 0.431 20.911 0.431 24.36 0.431 4.958 0 8.839-1.078 11.641-3.018 3.234-2.371 4.743-6.467 4.743-12.288 0-6.252-2.156-11.641-6.467-15.737z" />
<glyph unicode="&#xe94b;" glyph-name="qFaq" horiz-adv-x="1121" d="M506.826 660.776c-112.317 0-203.722-92.268-203.722-207.818s91.405-206.309 203.722-206.309c29.75 0 62.949 15.953 89.896 31.043l-148.318 165.349h136.677l84.938-103.909c27.379 35.571 40.744 66.614 40.744 114.041 0 115.55-91.405 207.603-203.938 207.603zM934.104 177.88c41.822 68.123 68.554 147.24 74.59 233.041 20.264 281.977-187.985 527.091-465.219 547.786-277.019 20.48-518.036-191.434-538.301-473.411s187.985-527.306 465.219-547.786c105.634-7.761 206.093 18.324 291.032 69.201 101.107-41.176 222.909-35.139 355.49 24.145-82.136 23.283-142.498 76.746-182.811 147.025zM708.177 156.322l-39.667 38.589c-45.703-29.965-105.849-53.248-161.684-53.248-168.152 0-304.829 138.186-304.829 307.631 0 170.307 136.677 309.571 304.829 309.571s304.829-137.971 304.829-308.925c0-73.297-23.498-134.737-71.572-192.728l102.4-100.675h-134.306z" />
<glyph unicode="&#xe94c;" glyph-name="aFaq" horiz-adv-x="1121" d="M930.223 177.88c41.822 68.123 68.554 147.24 74.59 233.041 20.049 281.977-188.2 527.091-465.219 547.786-277.019 20.48-518.036-191.434-538.301-473.411s187.985-527.306 465.219-547.786c105.634-7.761 206.093 18.324 291.032 69.201 101.107-41.176 222.909-35.139 355.49 24.145-82.351 23.283-142.498 76.746-182.811 147.025zM688.775 153.519l-66.614 169.445h-213.639l-68.123-169.445h-114.688l292.972 676.918 285.427-676.918h-115.335zM450.56 448h128.269l-63.38 154.786-64.889-154.786z" />
<glyph unicode="&#xe94d;" glyph-name="saving" d="M1020.551 424.717c-21.989-11.426-53.895-4.958-81.92-3.234-11.21 53.895-43.763 101.969-90.328 141.42l26.947 190.141c-86.447-18.971-149.612-61.224-193.374-103.478-10.132 3.018-20.48 5.605-31.043 8.192-34.061-61.871-100.029-103.909-175.481-103.909-66.614 0-125.683 32.768-162.115 82.998-92.052-34.924-156.726-94.424-182.38-175.697-3.018 4.527-6.467 8.839-10.348 12.504-12.935 12.719-29.319 18.971-47.212 18.109-36.433-1.509-62.949-19.833-70.925-48.505-7.114-26.085 2.803-55.188 23.929-68.985 19.402-12.719 43.763-9.917 65.32 7.33 7.761 6.252 9.054 17.677 2.803 25.438s-17.677 9.054-25.438 2.803c-6.252-5.174-15.306-10.132-22.636-5.389-6.899 4.527-12.072 16.815-8.839 28.888 3.665 13.366 17.031 21.127 37.511 21.989 7.976 0.431 14.444-2.156 20.264-7.761 13.797-13.581 20.696-40.744 23.714-64.458-0.216-12.719 0.431-25.654 1.94-39.235 8.839-84.291 47.643-156.51 106.712-210.621l27.81-182.38h87.094l-8.408 42.469 26.301 60.793c60.578-21.989 129.132-31.69 201.997-26.732 30.397 2.156 59.284 6.683 86.878 13.366l27.379-89.681h87.094l-6.467 42.469 23.498 102.616c61.656 39.235 107.789 92.483 134.952 153.277 15.737-9.917 30.612-20.696 34.061-13.797 4.312 8.408-2.371 39.667-19.618 51.955h60.362c-0.647-0.216 46.349 92.052 29.965 137.108zM839.68 387.853c-18.324 0-33.199 14.875-33.199 33.199s14.875 33.199 33.199 33.199c18.324 0 33.199-14.875 33.199-33.199s-14.875-33.199-33.199-33.199zM474.274 947.065c-103.262 0-186.907-83.645-186.907-186.907s83.645-186.907 186.907-186.907c103.262 0 186.907 83.645 186.907 186.907s-83.645 186.907-186.907 186.907zM489.149 656.68v-34.708h-33.415v32.337c-22.851 1.078-44.84 7.114-57.775 14.659l10.132 39.882c14.228-7.761 34.277-15.091 56.482-15.091 19.402 0 32.768 7.545 32.768 21.127 0 12.935-10.779 21.127-36.002 29.534-36.433 12.288-61.224 29.319-61.224 62.302 0 29.965 21.127 53.464 57.56 60.578v32.337h33.415v-29.965c22.851-1.078 38.157-5.821 49.368-11.21l-9.917-38.373c-8.839 3.665-24.576 11.641-48.936 11.641-22.205 0-29.319-9.485-29.319-18.971 0-11.21 11.857-18.324 40.744-29.319 40.529-14.228 56.913-32.984 56.913-63.596-0.216-30.612-21.558-56.482-60.793-63.165z" />
<glyph unicode="&#xe94e;" glyph-name="bond" horiz-adv-x="1067" d="M973.77 710.144l1.509 0.647c0.431 34.277 0.862 68.339 1.078 102.616-248.131-118.784-511.569-174.835-762.718-153.061 97.657-23.067 197.47-34.924 298.146-34.924 157.804 0 313.236 28.456 461.986 84.723zM49.583 737.523v-0.647c0-0.216 0-0.431 0-0.647l34.493-4.743c72.435-14.659 155.001-21.989 231.747-21.989 186.045 0 386.102 44.194 577.32 127.407 0.431 48.29 0.431 68.123 0.862 116.628-269.474-170.954-557.703-230.238-840.542-215.148h-3.88c0 0 0-0.216 0-0.216 0-0.216 0-0.431 0-0.647zM949.841 452.312c-0.431 0-0.862 0-1.293 0 0 0 0 0 0 0s3.234 0 1.293 0zM420.595 297.095c77.177-6.683 154.786-6.036 231.747 2.371-38.804 21.127-77.393 44.194-115.766 68.77-38.373-25.438-77.177-49.152-115.981-71.141zM562.661 149.639c0 0.431 28.025 1.293 56.051 3.018 0 31.69 0 63.596 0 95.286-28.025-1.94-56.051-2.371-56.051-2.803 0-31.69 0-63.596 0-95.501zM454.872 150.285c0-0.647 53.895-1.725 53.895-1.509 0 31.69 0 63.38 0 95.070 0-0.216-53.895 1.293-53.895 1.94 0-31.906 0-63.811 0-95.501zM49.583 659.914c0-210.836 0-421.457 0-632.293 324.877-118.137 671.313-118.137 974.417 0 0 210.836 0 421.457 0 632.293-303.104-117.922-649.539-117.922-974.417 0zM944.236 162.142c-53.895-37.726-87.525-50.661-100.46-120.509-101.322-23.714-204.8-35.571-308.062-35.571-101.322 0-201.997 11.426-301.379 34.277-12.935 69.632-48.936 83.86-104.987 121.587 0 80.842 0 206.309 0 287.151 0 0 3.449 0 5.605 0 59.5 0 86.232 28.672 98.951 89.896 99.597-22.851 200.92-34.277 302.242-34.277 103.478 0 206.74 11.857 308.278 35.571 12.719-61.009 34.708-90.974 94.208-90.974 1.94 0 5.821 0 5.821 0-0.216-80.842-0.216-206.525-0.216-287.151zM806.050 479.475c-89.034-17.462-179.793-26.085-270.336-26.085-89.034 0-176.559 8.408-263.869 25.223-18.54-39.451-58.422-64.458-86.447-75.021v-213.208c51.739-26.516 76.315-51.523 94.639-107.143 84.723-17.246 170.307-25.869 256.539-25.869 88.172 0 176.128 9.054 262.575 26.947 17.246 55.188 35.139 79.117 91.19 106.065v213.639c-56.051 13.15-71.141 45.272-84.291 75.453zM738.789 263.249c-22.205-4.096-64.027-7.761-64.027-9.054 0-31.906 0-63.596 0-95.501 0 1.078 33.415 3.88 50.23 6.899 0-16.168 5.174-32.337 5.174-48.505-18.324-3.234-50.877-6.252-50.877-7.33 0-0.431-79.764-8.192-106.28-8.623-53.032-0.431-106.712 1.078-159.528 4.312-26.516 2.156-41.176 3.88-59.5 6.467 0.216 16.168-1.725 32.337-1.725 48.505 17.031-2.371 22.851-3.88 50.877-6.036 0 31.69 0 63.38 0 95.070-28.025 2.371-43.978 4.958-65.967 8.408-5.389 15.522-5.821 30.828-11.21 46.349 65.32 32.552 131.719 70.925 196.177 113.61 10.563 0 19.618 0 30.181 0.216 64.674-41.391 131.503-78.255 196.392-109.083-2.587-15.306-7.545-30.397-9.917-45.703z" />
<glyph unicode="&#xe959;" glyph-name="borrow" horiz-adv-x="1121" d="M977.004 224.229c0-200.273-186.691-288.229-416.93-288.229s-416.93 87.741-416.93 288.229c0 162.331 122.664 348.807 291.463 413.696h250.934c169.014-64.889 291.463-251.365 291.463-413.696zM582.279 105.876v49.799c56.051 9.701 86.878 46.781 86.878 90.328 0 43.978-23.498 70.925-81.489 91.405-41.607 15.737-58.637 25.869-58.637 42.038 0 13.581 10.348 27.379 42.038 27.379 35.139 0 57.56-11.21 70.279-16.6l14.228 55.188c-16.168 7.761-38.157 14.659-70.71 16.168v42.9h-48.074v-46.349c-52.17-10.348-82.567-43.978-82.567-86.878 0-47.427 35.571-71.788 87.956-89.465 36.217-12.288 51.739-23.929 51.739-42.469 0-19.618-18.971-30.181-46.781-30.181-31.69 0-60.578 10.348-81.058 21.558l-14.659-57.128c18.54-10.779 50.23-19.618 82.998-20.911v-46.349h47.859zM717.662 716.827h-314.961v-40.744h314.961v40.744zM680.583 960l-47.643-140.126-6.899 140.126h-119.215l-6.899-140.126-47.643 140.126h-91.19l97.226-209.327h203.507l97.226 209.327h-78.471z" />
</font>
</defs>
</svg>
